  0
SECTION
  2
HEADER
  9
$ACADVER
  1
AC1014
  9
$ACADMAINTVER
 70
     9
  9
$DWGCODEPAGE
  3
ANSI_932
  9
$INSBASE
 10
0.0
 20
0.0
 30
0.0
  9
$EXTMIN
 10
-90.48919966230618
 20
-359.8937837713706
 30
-0.0000000000112498
  9
$EXTMAX
 10
297.3673801009836
 20
326.8334425610285
 30
0.0000000000002956
  9
$LIMMIN
 10
-296.316999476111
 20
-370.7034300441653
  9
$LIMMAX
 10
623.3128432133979
 20
328.6261559379898
  9
$ORTHOMODE
 70
     1
  9
$REGENMODE
 70
     1
  9
$FILLMODE
 70
     1
  9
$QTEXTMODE
 70
     0
  9
$MIRRTEXT
 70
     1
  9
$DRAGMODE
 70
     2
  9
$LTSCALE
 40
10.0
  9
$OSMODE
 70
   175
  9
$ATTMODE
 70
     1
  9
$TEXTSIZE
 40
5.0
  9
$TRACEWID
 40
0.05
  9
$TEXTSTYLE
  7
STANDARD1
  9
$CLAYER
  8
30
  9
$CELTYPE
  6
CONTINUOUS
  9
$CECOLOR
 62
   256
  9
$CELTSCALE
 40
1.0
  9
$DELOBJ
 70
     1
  9
$DISPSILH
 70
     0
  9
$DIMSCALE
 40
1.0
  9
$DIMASZ
 40
2.0
  9
$DIMEXO
 40
1.0
  9
$DIMDLI
 40
0.5
  9
$DIMRND
 40
0.0
  9
$DIMDLE
 40
0.0
  9
$DIMEXE
 40
0.5
  9
$DIMTP
 40
0.0
  9
$DIMTM
 40
0.0
  9
$DIMTXT
 40
4.0
  9
$DIMCEN
 40
0.09
  9
$DIMTSZ
 40
0.0
  9
$DIMTOL
 70
     0
  9
$DIMLIM
 70
     0
  9
$DIMTIH
 70
     0
  9
$DIMTOH
 70
     1
  9
$DIMSE1
 70
     0
  9
$DIMSE2
 70
     0
  9
$DIMTAD
 70
     3
  9
$DIMZIN
 70
    12
  9
$DIMBLK
  1
OPEN
  9
$DIMASO
 70
     1
  9
$DIMSHO
 70
     1
  9
$DIMPOST
  1

  9
$DIMAPOST
  1

  9
$DIMALT
 70
     0
  9
$DIMALTD
 70
     2
  9
$DIMALTF
 40
25.4
  9
$DIMLFAC
 40
1.0
  9
$DIMTOFL
 70
     0
  9
$DIMTVP
 40
0.0
  9
$DIMTIX
 70
     0
  9
$DIMSOXD
 70
     0
  9
$DIMSAH
 70
     0
  9
$DIMBLK1
  1

  9
$DIMBLK2
  1

  9
$DIMSTYLE
  2
STANDARD
  9
$DIMCLRD
 70
     0
  9
$DIMCLRE
 70
     0
  9
$DIMCLRT
 70
     0
  9
$DIMTFAC
 40
1.0
  9
$DIMGAP
 40
1.0
  9
$DIMJUST
 70
     0
  9
$DIMSD1
 70
     0
  9
$DIMSD2
 70
     0
  9
$DIMTOLJ
 70
     1
  9
$DIMTZIN
 70
     0
  9
$DIMALTZ
 70
     0
  9
$DIMALTTZ
 70
     0
  9
$DIMFIT
 70
     3
  9
$DIMUPT
 70
     0
  9
$DIMUNIT
 70
     2
  9
$DIMDEC
 70
     1
  9
$DIMTDEC
 70
     1
  9
$DIMALTU
 70
     2
  9
$DIMALTTD
 70
     2
  9
$DIMTXSTY
  7
STANDARD
  9
$DIMAUNIT
 70
     0
  9
$LUNITS
 70
     2
  9
$LUPREC
 70
     4
  9
$SKETCHINC
 40
0.1
  9
$FILLETRAD
 40
0.0
  9
$AUNITS
 70
     0
  9
$AUPREC
 70
     0
  9
$MENU
  1
.
  9
$ELEVATION
 40
0.0
  9
$PELEVATION
 40
0.0
  9
$THICKNESS
 40
0.0
  9
$LIMCHECK
 70
     0
  9
$BLIPMODE
 70
     0
  9
$CHAMFERA
 40
0.0
  9
$CHAMFERB
 40
0.0
  9
$CHAMFERC
 40
0.0
  9
$CHAMFERD
 40
0.0
  9
$SKPOLY
 70
     0
  9
$TDCREATE
 40
2452286.555658657
  9
$TDUPDATE
 40
2453618.994704317
  9
$TDINDWG
 40
1.3086218171
  9
$TDUSRTIMER
 40
1.3086209144
  9
$USRTIMER
 70
     1
  9
$ANGBASE
 50
0.0
  9
$ANGDIR
 70
     0
  9
$PDMODE
 70
     0
  9
$PDSIZE
 40
0.0
  9
$PLINEWID
 40
0.0
  9
$COORDS
 70
     1
  9
$SPLFRAME
 70
     0
  9
$SPLINETYPE
 70
     6
  9
$SPLINESEGS
 70
     8
  9
$ATTDIA
 70
     0
  9
$ATTREQ
 70
     1
  9
$HANDLING
 70
-16383
  9
$HANDSEED
  5
73E1
  9
$SURFTAB1
 70
     6
  9
$SURFTAB2
 70
     6
  9
$SURFTYPE
 70
     6
  9
$SURFU
 70
     6
  9
$SURFV
 70
     6
  9
$UCSNAME
  2

  9
$UCSORG
 10
0.0
 20
0.0
 30
0.0
  9
$UCSXDIR
 10
1.0
 20
0.0
 30
0.0
  9
$UCSYDIR
 10
0.0
 20
1.0
 30
0.0
  9
$PUCSNAME
  2

  9
$PUCSORG
 10
0.0
 20
0.0
 30
0.0
  9
$PUCSXDIR
 10
1.0
 20
0.0
 30
0.0
  9
$PUCSYDIR
 10
0.0
 20
1.0
 30
0.0
  9
$USERI1
 70
     0
  9
$USERI2
 70
     0
  9
$USERI3
 70
     0
  9
$USERI4
 70
     0
  9
$USERI5
 70
     0
  9
$USERR1
 40
0.0
  9
$USERR2
 40
0.0
  9
$USERR3
 40
0.0
  9
$USERR4
 40
0.0
  9
$USERR5
 40
0.0
  9
$WORLDVIEW
 70
     1
  9
$SHADEDGE
 70
     3
  9
$SHADEDIF
 70
    70
  9
$TILEMODE
 70
     1
  9
$MAXACTVP
 70
    48
  9
$PINSBASE
 10
0.0
 20
0.0
 30
0.0
  9
$PLIMCHECK
 70
     0
  9
$PEXTMIN
 10
4.273573
 20
5.205245999999998
 30
0.0
  9
$PEXTMAX
 10
194.610095
 20
283.0697009999996
 30
0.0
  9
$PLIMMIN
 10
-5.873749
 20
-5.87375
  9
$PLIMMAX
 10
204.099579
 20
291.1369009999999
  9
$UNITMODE
 70
     0
  9
$VISRETAIN
 70
     1
  9
$PLINEGEN
 70
     0
  9
$PSLTSCALE
 70
     1
  9
$TREEDEPTH
 70
  3020
  9
$PICKSTYLE
 70
     1
  9
$CMLSTYLE
  2
STANDARD
  9
$CMLJUST
 70
     0
  9
$CMLSCALE
 40
1.0
  9
$PROXYGRAPHICS
 70
     1
  9
$MEASUREMENT
 70
     0
  0
ENDSEC
  0
SECTION
  2
CLASSES
  0
CLASS
  1
ACDBDICTIONARYWDFLT
  2
AcDbDictionaryWithDefault
  3
AutoCAD 2000
 90
        0
280
     0
281
     0
  0
CLASS
  1
ACDBPLACEHOLDER
  2
AcDbPlaceHolder
  3
AutoCAD 2000
 90
        0
280
     0
281
     0
  0
CLASS
  1
LAYOUT
  2
AcDbLayout
  3
AutoCAD 2000
 90
        0
280
     0
281
     0
  0
CLASS
  1
LONG_TRANSACTION
  2
AcDbLongTransaction
  3
AutoCAD 2000
 90
        0
280
     0
281
     0
  0
CLASS
  1
LWPOLYLINE
  2
AcDbPolyline
  3
AutoCAD 2000
 90
        0
280
     0
281
     1
  0
CLASS
  1
HATCH
  2
AcDbHatch
  3
AutoCAD 2000
 90
        0
280
     0
281
     1
  0
CLASS
  1
XRECORD
  2
AcDbXrecord
  3
AutoCAD 2000
 90
        0
280
     0
281
     0
  0
CLASS
  1
LONG_TRANSACTION
  2
AcDbLongTransaction
  3
AutoCAD 2000
 90
        0
280
     0
281
     0
  0
CLASS
  1
LWPOLYLINE
  2
AcDbPolyline
  3
AutoCAD 2000
 90
        0
280
     0
281
     1
  0
CLASS
  1
HATCH
  2
AcDbHatch
  3
AutoCAD 2000
 90
        0
280
     0
281
     1
  0
CLASS
  1
XRECORD
  2
AcDbXrecord
  3
AutoCAD 2000
 90
        0
280
     0
281
     0
  0
CLASS
  1
LONG_TRANSACTION
  2
AcDbLongTransaction
  3
AutoCAD 2000
 90
        0
280
     0
281
     0
  0
CLASS
  1
LWPOLYLINE
  2
AcDbPolyline
  3
AutoCAD 2000
 90
        0
280
     0
281
     1
  0
CLASS
  1
HATCH
  2
AcDbHatch
  3
AutoCAD 2000
 90
        0
280
     0
281
     1
  0
CLASS
  1
XRECORD
  2
AcDbXrecord
  3
AutoCAD 2000
 90
        0
280
     0
281
     0
  0
CLASS
  1
LONG_TRANSACTION
  2
AcDbLongTransaction
  3
AutoCAD 2000
 90
        0
280
     0
281
     0
  0
CLASS
  1
LWPOLYLINE
  2
AcDbPolyline
  3
AutoCAD 2000
 90
        0
280
     0
281
     1
  0
CLASS
  1
HATCH
  2
AcDbHatch
  3
AutoCAD 2000
 90
        0
280
     0
281
     1
  0
CLASS
  1
XRECORD
  2
AcDbXrecord
  3
AutoCAD 2000
 90
        0
280
     0
281
     0
  0
CLASS
  1
LONG_TRANSACTION
  2
AcDbLongTransaction
  3
AutoCAD 2000
 90
        0
280
     0
281
     0
  0
CLASS
  1
LWPOLYLINE
  2
AcDbPolyline
  3
AutoCAD 2000
 90
        0
280
     0
281
     1
  0
CLASS
  1
HATCH
  2
AcDbHatch
  3
AutoCAD 2000
 90
        0
280
     0
281
     1
  0
CLASS
  1
XRECORD
  2
AcDbXrecord
  3
AutoCAD 2000
 90
        0
280
     0
281
     0
  0
CLASS
  1
LONG_TRANSACTION
  2
AcDbLongTransaction
  3
AutoCAD 2000
 90
        0
280
     0
281
     0
  0
CLASS
  1
LWPOLYLINE
  2
AcDbPolyline
  3
AutoCAD 2000
 90
        0
280
     0
281
     1
  0
CLASS
  1
HATCH
  2
AcDbHatch
  3
AutoCAD 2000
 90
        0
280
     0
281
     1
  0
CLASS
  1
XRECORD
  2
AcDbXrecord
  3
AutoCAD 2000
 90
        0
280
     0
281
     0
  0
CLASS
  1
LONG_TRANSACTION
  2
AcDbLongTransaction
  3
AutoCAD 2000
 90
        0
280
     0
281
     0
  0
CLASS
  1
LWPOLYLINE
  2
AcDbPolyline
  3
AutoCAD 2000
 90
        0
280
     0
281
     1
  0
CLASS
  1
HATCH
  2
AcDbHatch
  3
AutoCAD 2000
 90
        0
280
     0
281
     1
  0
CLASS
  1
XRECORD
  2
AcDbXrecord
  3
AutoCAD 2000
 90
        0
280
     0
281
     0
  0
CLASS
  1
LONG_TRANSACTION
  2
AcDbLongTransaction
  3
AutoCAD 2000
 90
        0
280
     0
281
     0
  0
CLASS
  1
LWPOLYLINE
  2
AcDbPolyline
  3
AutoCAD 2000
 90
        0
280
     0
281
     1
  0
CLASS
  1
HATCH
  2
AcDbHatch
  3
AutoCAD 2000
 90
        0
280
     0
281
     1
  0
CLASS
  1
XRECORD
  2
AcDbXrecord
  3
AutoCAD 2000
 90
        0
280
     0
281
     0
  0
CLASS
  1
LONG_TRANSACTION
  2
AcDbLongTransaction
  3
AutoCAD 2000
 90
        0
280
     0
281
     0
  0
CLASS
  1
LWPOLYLINE
  2
AcDbPolyline
  3
AutoCAD 2000
 90
        0
280
     0
281
     1
  0
CLASS
  1
HATCH
  2
AcDbHatch
  3
AutoCAD 2000
 90
        0
280
     0
281
     1
  0
CLASS
  1
XRECORD
  2
AcDbXrecord
  3
AutoCAD 2000
 90
        0
280
     0
281
     0
  0
CLASS
  1
LONG_TRANSACTION
  2
AcDbLongTransaction
  3
AutoCAD 2000
 90
        0
280
     0
281
     0
  0
CLASS
  1
LWPOLYLINE
  2
AcDbPolyline
  3
AutoCAD 2000
 90
        0
280
     0
281
     1
  0
CLASS
  1
HATCH
  2
AcDbHatch
  3
AutoCAD 2000
 90
        0
280
     0
281
     1
  0
CLASS
  1
XRECORD
  2
AcDbXrecord
  3
AutoCAD 2000
 90
        0
280
     0
281
     0
  0
CLASS
  1
LONG_TRANSACTION
  2
AcDbLongTransaction
  3
AutoCAD 2000
 90
        0
280
     0
281
     0
  0
CLASS
  1
LWPOLYLINE
  2
AcDbPolyline
  3
AutoCAD 2000
 90
        0
280
     0
281
     1
  0
CLASS
  1
HATCH
  2
AcDbHatch
  3
AutoCAD 2000
 90
        0
280
     0
281
     1
  0
CLASS
  1
XRECORD
  2
AcDbXrecord
  3
AutoCAD 2000
 90
        0
280
     0
281
     0
  0
CLASS
  1
LONG_TRANSACTION
  2
AcDbLongTransaction
  3
AutoCAD 2000
 90
        0
280
     0
281
     0
  0
CLASS
  1
LWPOLYLINE
  2
AcDbPolyline
  3
AutoCAD 2000
 90
        0
280
     0
281
     1
  0
CLASS
  1
HATCH
  2
AcDbHatch
  3
AutoCAD 2000
 90
        0
280
     0
281
     1
  0
CLASS
  1
XRECORD
  2
AcDbXrecord
  3
AutoCAD 2000
 90
        0
280
     0
281
     0
  0
CLASS
  1
LONG_TRANSACTION
  2
AcDbLongTransaction
  3
AutoCAD 2000
 90
        0
280
     0
281
     0
  0
CLASS
  1
LWPOLYLINE
  2
AcDbPolyline
  3
AutoCAD 2000
 90
        0
280
     0
281
     1
  0
CLASS
  1
HATCH
  2
AcDbHatch
  3
AutoCAD 2000
 90
        0
280
     0
281
     1
  0
CLASS
  1
XRECORD
  2
AcDbXrecord
  3
AutoCAD 2000
 90
        0
280
     0
281
     0
  0
CLASS
  1
LONG_TRANSACTION
  2
AcDbLongTransaction
  3
AutoCAD 2000
 90
        0
280
     0
281
     0
  0
CLASS
  1
LWPOLYLINE
  2
AcDbPolyline
  3
AutoCAD 2000
 90
        0
280
     0
281
     1
  0
CLASS
  1
HATCH
  2
AcDbHatch
  3
AutoCAD 2000
 90
        0
280
     0
281
     1
  0
CLASS
  1
XRECORD
  2
AcDbXrecord
  3
AutoCAD 2000
 90
        0
280
     0
281
     0
  0
CLASS
  1
LONG_TRANSACTION
  2
AcDbLongTransaction
  3
AutoCAD 2000
 90
        0
280
     0
281
     0
  0
CLASS
  1
LWPOLYLINE
  2
AcDbPolyline
  3
AutoCAD 2000
 90
        0
280
     0
281
     1
  0
CLASS
  1
HATCH
  2
AcDbHatch
  3
AutoCAD 2000
 90
        0
280
     0
281
     1
  0
CLASS
  1
XRECORD
  2
AcDbXrecord
  3
AutoCAD 2000
 90
        0
280
     0
281
     0
  0
CLASS
  1
LONG_TRANSACTION
  2
AcDbLongTransaction
  3
AutoCAD 2000
 90
        0
280
     0
281
     0
  0
CLASS
  1
LWPOLYLINE
  2
AcDbPolyline
  3
AutoCAD 2000
 90
        0
280
     0
281
     1
  0
CLASS
  1
HATCH
  2
AcDbHatch
  3
AutoCAD 2000
 90
        0
280
     0
281
     1
  0
CLASS
  1
XRECORD
  2
AcDbXrecord
  3
AutoCAD 2000
 90
        0
280
     0
281
     0
  0
CLASS
  1
LONG_TRANSACTION
  2
AcDbLongTransaction
  3
AutoCAD 2000
 90
        0
280
     0
281
     0
  0
CLASS
  1
LWPOLYLINE
  2
AcDbPolyline
  3
AutoCAD 2000
 90
        0
280
     0
281
     1
  0
CLASS
  1
HATCH
  2
AcDbHatch
  3
AutoCAD 2000
 90
        0
280
     0
281
     1
  0
CLASS
  1
XRECORD
  2
AcDbXrecord
  3
AutoCAD 2000
 90
        0
280
     0
281
     0
  0
CLASS
  1
LONG_TRANSACTION
  2
AcDbLongTransaction
  3
AutoCAD 2000
 90
        0
280
     0
281
     0
  0
CLASS
  1
LWPOLYLINE
  2
AcDbPolyline
  3
AutoCAD 2000
 90
        0
280
     0
281
     1
  0
CLASS
  1
HATCH
  2
AcDbHatch
  3
AutoCAD 2000
 90
        0
280
     0
281
     1
  0
CLASS
  1
XRECORD
  2
AcDbXrecord
  3
AutoCAD 2000
 90
        0
280
     0
281
     0
  0
CLASS
  1
LONG_TRANSACTION
  2
AcDbLongTransaction
  3
AutoCAD 2000
 90
        0
280
     0
281
     0
  0
CLASS
  1
LWPOLYLINE
  2
AcDbPolyline
  3
AutoCAD 2000
 90
        0
280
     0
281
     1
  0
CLASS
  1
HATCH
  2
AcDbHatch
  3
AutoCAD 2000
 90
        0
280
     0
281
     1
  0
CLASS
  1
XRECORD
  2
AcDbXrecord
  3
AutoCAD 2000
 90
        0
280
     0
281
     0
  0
CLASS
  1
LONG_TRANSACTION
  2
AcDbLongTransaction
  3
AutoCAD 2000
 90
        0
280
     0
281
     0
  0
CLASS
  1
LWPOLYLINE
  2
AcDbPolyline
  3
AutoCAD 2000
 90
        0
280
     0
281
     1
  0
CLASS
  1
HATCH
  2
AcDbHatch
  3
AutoCAD 2000
 90
        0
280
     0
281
     1
  0
CLASS
  1
XRECORD
  2
AcDbXrecord
  3
AutoCAD 2000
 90
        0
280
     0
281
     0
  0
CLASS
  1
LONG_TRANSACTION
  2
AcDbLongTransaction
  3
AutoCAD 2000
 90
        0
280
     0
281
     0
  0
CLASS
  1
LWPOLYLINE
  2
AcDbPolyline
  3
AutoCAD 2000
 90
        0
280
     0
281
     1
  0
CLASS
  1
HATCH
  2
AcDbHatch
  3
AutoCAD 2000
 90
        0
280
     0
281
     1
  0
CLASS
  1
XRECORD
  2
AcDbXrecord
  3
AutoCAD 2000
 90
        0
280
     0
281
     0
  0
CLASS
  1
LONG_TRANSACTION
  2
AcDbLongTransaction
  3
AutoCAD 2000
 90
        0
280
     0
281
     0
  0
CLASS
  1
LWPOLYLINE
  2
AcDbPolyline
  3
AutoCAD 2000
 90
        0
280
     0
281
     1
  0
CLASS
  1
HATCH
  2
AcDbHatch
  3
AutoCAD 2000
 90
        0
280
     0
281
     1
  0
CLASS
  1
XRECORD
  2
AcDbXrecord
  3
AutoCAD 2000
 90
        0
280
     0
281
     0
  0
CLASS
  1
LONG_TRANSACTION
  2
AcDbLongTransaction
  3
AutoCAD 2000
 90
        0
280
     0
281
     0
  0
CLASS
  1
LWPOLYLINE
  2
AcDbPolyline
  3
AutoCAD 2000
 90
        0
280
     0
281
     1
  0
CLASS
  1
HATCH
  2
AcDbHatch
  3
AutoCAD 2000
 90
        0
280
     0
281
     1
  0
CLASS
  1
XRECORD
  2
AcDbXrecord
  3
AutoCAD 2000
 90
        0
280
     0
281
     0
  0
CLASS
  1
LONG_TRANSACTION
  2
AcDbLongTransaction
  3
AutoCAD 2000
 90
        0
280
     0
281
     0
  0
CLASS
  1
LWPOLYLINE
  2
AcDbPolyline
  3
AutoCAD 2000
 90
        0
280
     0
281
     1
  0
CLASS
  1
HATCH
  2
AcDbHatch
  3
AutoCAD 2000
 90
        0
280
     0
281
     1
  0
CLASS
  1
XRECORD
  2
AcDbXrecord
  3
AutoCAD 2000
 90
        0
280
     0
281
     0
  0
CLASS
  1
LONG_TRANSACTION
  2
AcDbLongTransaction
  3
AutoCAD 2000
 90
        0
280
     0
281
     0
  0
CLASS
  1
LWPOLYLINE
  2
AcDbPolyline
  3
AutoCAD 2000
 90
        0
280
     0
281
     1
  0
CLASS
  1
HATCH
  2
AcDbHatch
  3
AutoCAD 2000
 90
        0
280
     0
281
     1
  0
CLASS
  1
XRECORD
  2
AcDbXrecord
  3
AutoCAD 2000
 90
        0
280
     0
281
     0
  0
CLASS
  1
LONG_TRANSACTION
  2
AcDbLongTransaction
  3
AutoCAD 2000
 90
        0
280
     0
281
     0
  0
CLASS
  1
LWPOLYLINE
  2
AcDbPolyline
  3
AutoCAD 2000
 90
        0
280
     0
281
     1
  0
CLASS
  1
HATCH
  2
AcDbHatch
  3
AutoCAD 2000
 90
        0
280
     0
281
     1
  0
CLASS
  1
XRECORD
  2
AcDbXrecord
  3
AutoCAD 2000
 90
        0
280
     0
281
     0
  0
CLASS
  1
LONG_TRANSACTION
  2
AcDbLongTransaction
  3
AutoCAD 2000
 90
        0
280
     0
281
     0
  0
CLASS
  1
LWPOLYLINE
  2
AcDbPolyline
  3
AutoCAD 2000
 90
        0
280
     0
281
     1
  0
CLASS
  1
HATCH
  2
AcDbHatch
  3
AutoCAD 2000
 90
        0
280
     0
281
     1
  0
CLASS
  1
XRECORD
  2
AcDbXrecord
  3
AutoCAD 2000
 90
        0
280
     0
281
     0
  0
CLASS
  1
LONG_TRANSACTION
  2
AcDbLongTransaction
  3
AutoCAD 2000
 90
        0
280
     0
281
     0
  0
CLASS
  1
LWPOLYLINE
  2
AcDbPolyline
  3
AutoCAD 2000
 90
        0
280
     0
281
     1
  0
CLASS
  1
HATCH
  2
AcDbHatch
  3
AutoCAD 2000
 90
        0
280
     0
281
     1
  0
CLASS
  1
XRECORD
  2
AcDbXrecord
  3
AutoCAD 2000
 90
        0
280
     0
281
     0
  0
CLASS
  1
LONG_TRANSACTION
  2
AcDbLongTransaction
  3
AutoCAD 2000
 90
        0
280
     0
281
     0
  0
CLASS
  1
LWPOLYLINE
  2
AcDbPolyline
  3
AutoCAD 2000
 90
        0
280
     0
281
     1
  0
CLASS
  1
HATCH
  2
AcDbHatch
  3
AutoCAD 2000
 90
        0
280
     0
281
     1
  0
CLASS
  1
XRECORD
  2
AcDbXrecord
  3
AutoCAD 2000
 90
        0
280
     0
281
     0
  0
CLASS
  1
LONG_TRANSACTION
  2
AcDbLongTransaction
  3
AutoCAD 2000
 90
        0
280
     0
281
     0
  0
CLASS
  1
LWPOLYLINE
  2
AcDbPolyline
  3
AutoCAD 2000
 90
        0
280
     0
281
     1
  0
CLASS
  1
HATCH
  2
AcDbHatch
  3
AutoCAD 2000
 90
        0
280
     0
281
     1
  0
CLASS
  1
XRECORD
  2
AcDbXrecord
  3
AutoCAD 2000
 90
        0
280
     0
281
     0
  0
CLASS
  1
LONG_TRANSACTION
  2
AcDbLongTransaction
  3
AutoCAD 2000
 90
        0
280
     0
281
     0
  0
CLASS
  1
LWPOLYLINE
  2
AcDbPolyline
  3
AutoCAD 2000
 90
        0
280
     0
281
     1
  0
CLASS
  1
HATCH
  2
AcDbHatch
  3
AutoCAD 2000
 90
        0
280
     0
281
     1
  0
CLASS
  1
XRECORD
  2
AcDbXrecord
  3
AutoCAD 2000
 90
        0
280
     0
281
     0
  0
CLASS
  1
LONG_TRANSACTION
  2
AcDbLongTransaction
  3
AutoCAD 2000
 90
        0
280
     0
281
     0
  0
CLASS
  1
LWPOLYLINE
  2
AcDbPolyline
  3
AutoCAD 2000
 90
        0
280
     0
281
     1
  0
CLASS
  1
HATCH
  2
AcDbHatch
  3
AutoCAD 2000
 90
        0
280
     0
281
     1
  0
CLASS
  1
XRECORD
  2
AcDbXrecord
  3
AutoCAD 2000
 90
        0
280
     0
281
     0
  0
CLASS
  1
LONG_TRANSACTION
  2
AcDbLongTransaction
  3
AutoCAD 2000
 90
        0
280
     0
281
     0
  0
CLASS
  1
LWPOLYLINE
  2
AcDbPolyline
  3
AutoCAD 2000
 90
        0
280
     0
281
     1
  0
CLASS
  1
HATCH
  2
AcDbHatch
  3
AutoCAD 2000
 90
        0
280
     0
281
     1
  0
CLASS
  1
XRECORD
  2
AcDbXrecord
  3
AutoCAD 2000
 90
        0
280
     0
281
     0
  0
CLASS
  1
DICTIONARYVAR
  2
AcDbDictionaryVar
  3
AutoCAD 2000
 90
        0
280
     0
281
     0
  0
CLASS
  1
LONG_TRANSACTION
  2
AcDbLongTransaction
  3
AutoCAD 2000
 90
        0
280
     0
281
     0
  0
CLASS
  1
LWPOLYLINE
  2
AcDbPolyline
  3
AutoCAD 2000
 90
        0
280
     0
281
     1
  0
CLASS
  1
HATCH
  2
AcDbHatch
  3
AutoCAD 2000
 90
        0
280
     0
281
     1
  0
CLASS
  1
XRECORD
  2
AcDbXrecord
  3
AutoCAD 2000
 90
        0
280
     0
281
     0
  0
CLASS
  1
LONG_TRANSACTION
  2
AcDbLongTransaction
  3
AutoCAD 2000
 90
        0
280
     0
281
     0
  0
CLASS
  1
LWPOLYLINE
  2
AcDbPolyline
  3
AutoCAD 2000
 90
        0
280
     0
281
     1
  0
CLASS
  1
HATCH
  2
AcDbHatch
  3
AutoCAD 2000
 90
        0
280
     0
281
     1
  0
CLASS
  1
XRECORD
  2
AcDbXrecord
  3
AutoCAD 2000
 90
        0
280
     0
281
     0
  0
CLASS
  1
LONG_TRANSACTION
  2
AcDbLongTransaction
  3
AutoCAD 2000
 90
        0
280
     0
281
     0
  0
CLASS
  1
LWPOLYLINE
  2
AcDbPolyline
  3
AutoCAD 2000
 90
        0
280
     0
281
     1
  0
CLASS
  1
HATCH
  2
AcDbHatch
  3
AutoCAD 2000
 90
        0
280
     0
281
     1
  0
CLASS
  1
XRECORD
  2
AcDbXrecord
  3
AutoCAD 2000
 90
        0
280
     0
281
     0
  0
CLASS
  1
LONG_TRANSACTION
  2
AcDbLongTransaction
  3
AutoCAD 2000
 90
        0
280
     0
281
     0
  0
CLASS
  1
LWPOLYLINE
  2
AcDbPolyline
  3
AutoCAD 2000
 90
        0
280
     0
281
     1
  0
CLASS
  1
HATCH
  2
AcDbHatch
  3
AutoCAD 2000
 90
        0
280
     0
281
     1
  0
CLASS
  1
XRECORD
  2
AcDbXrecord
  3
AutoCAD 2000
 90
        0
280
     0
281
     0
  0
CLASS
  1
LONG_TRANSACTION
  2
AcDbLongTransaction
  3
AutoCAD 2000
 90
        0
280
     0
281
     0
  0
CLASS
  1
LWPOLYLINE
  2
AcDbPolyline
  3
AutoCAD 2000
 90
        0
280
     0
281
     1
  0
CLASS
  1
HATCH
  2
AcDbHatch
  3
AutoCAD 2000
 90
        0
280
     0
281
     1
  0
CLASS
  1
XRECORD
  2
AcDbXrecord
  3
AutoCAD 2000
 90
        0
280
     0
281
     0
  0
CLASS
  1
LONG_TRANSACTION
  2
AcDbLongTransaction
  3
AutoCAD 2000
 90
        0
280
     0
281
     0
  0
CLASS
  1
LWPOLYLINE
  2
AcDbPolyline
  3
AutoCAD 2000
 90
        0
280
     0
281
     1
  0
CLASS
  1
HATCH
  2
AcDbHatch
  3
AutoCAD 2000
 90
        0
280
     0
281
     1
  0
CLASS
  1
XRECORD
  2
AcDbXrecord
  3
AutoCAD 2000
 90
        0
280
     0
281
     0
  0
CLASS
  1
LONG_TRANSACTION
  2
AcDbLongTransaction
  3
AutoCAD 2000
 90
        0
280
     0
281
     0
  0
CLASS
  1
LWPOLYLINE
  2
AcDbPolyline
  3
AutoCAD 2000
 90
        0
280
     0
281
     1
  0
CLASS
  1
HATCH
  2
AcDbHatch
  3
AutoCAD 2000
 90
        0
280
     0
281
     1
  0
CLASS
  1
XRECORD
  2
AcDbXrecord
  3
AutoCAD 2000
 90
        0
280
     0
281
     0
  0
ENDSEC
  0
SECTION
  2
TABLES
  0
TABLE
  2
VPORT
  5
8
330
0
100
AcDbSymbolTable
 70
     3
  0
VPORT
  5
73B4
330
8
100
AcDbSymbolTableRecord
100
AcDbViewportTableRecord
  2
*ACTIVE
 70
     0
 10
0.0
 20
0.0
 11
1.0
 21
1.0
 12
103.4390902193387
 22
-16.53017060517106
 13
0.0
 23
0.0
 14
1.0
 24
1.0
 15
10.0
 25
10.0
 16
0.0
 26
0.0
 36
1.0
 17
0.0
 27
0.0
 37
0.0
 40
692.3638383132396
 41
1.723287671232876
 42
50.0
 43
0.0
 44
0.0
 50
0.0
 51
0.0
 71
     0
 72
   100
 73
     1
 74
     1
 75
     0
 76
     0
 77
     0
 78
     0
  0
ENDTAB
  0
TABLE
  2
LTYPE
  5
5
330
0
100
AcDbSymbolTable
 70
     5
  0
LTYPE
  5
13
330
5
100
AcDbSymbolTableRecord
100
AcDbLinetypeTableRecord
  2
BYBLOCK
 70
     0
  3

 72
    65
 73
     0
 40
0.0
  0
LTYPE
  5
14
330
5
100
AcDbSymbolTableRecord
100
AcDbLinetypeTableRecord
  2
BYLAYER
 70
     0
  3

 72
    65
 73
     0
 40
0.0
  0
LTYPE
  5
15
330
5
100
AcDbSymbolTableRecord
100
AcDbLinetypeTableRecord
  2
CONTINUOUS
 70
     0
  3
Solid line
 72
    65
 73
     0
 40
0.0
  0
LTYPE
  5
22
330
5
100
AcDbSymbolTableRecord
100
AcDbLinetypeTableRecord
  2
CONTINOUS
 70
     0
  3
Solid line
 72
    65
 73
     0
 40
0.0
  0
LTYPE
  5
23
330
5
100
AcDbSymbolTableRecord
100
AcDbLinetypeTableRecord
  2
DASHED
 70
     0
  3
__ __ __ __ __ __ __ __ __ __ __ __ __ __ __
 72
    65
 73
     2
 40
0.75
 49
0.5
 74
     0
 49
-0.25
 74
     0
  0
LTYPE
  5
24
330
5
100
AcDbSymbolTableRecord
100
AcDbLinetypeTableRecord
  2
DASHDOT
 70
     0
  3
__ . __ . __ . __ . __ . __ . __ . __ . __ . __
 72
    65
 73
     4
 40
1.0
 49
0.5
 74
     0
 49
-0.25
 74
     0
 49
0.0
 74
     0
 49
-0.25
 74
     0
  0
LTYPE
  5
4C47
330
5
100
AcDbSymbolTableRecord
100
AcDbLinetypeTableRecord
  2
DIVIDE
 70
     0
  3
Divide ____ . . ____ . . ____ . . ____ . . ____
 72
    65
 73
     6
 40
1.25
 49
0.5
 74
     0
 49
-0.25
 74
     0
 49
0.0
 74
     0
 49
-0.25
 74
     0
 49
0.0
 74
     0
 49
-0.25
 74
     0
  0
ENDTAB
  0
TABLE
  2
LAYER
  5
2
330
0
100
AcDbSymbolTable
 70
    12
  0
LAYER
  5
10
330
2
100
AcDbSymbolTableRecord
100
AcDbLayerTableRecord
  2
0
 70
     0
 62
     7
  6
CONTINOUS
  0
LAYER
  5
2F
330
2
100
AcDbSymbolTableRecord
100
AcDbLayerTableRecord
  2
10
 70
     0
 62
     4
  6
CONTINOUS
  0
LAYER
  5
31
330
2
100
AcDbSymbolTableRecord
100
AcDbLayerTableRecord
  2
12
 70
     0
 62
     3
  6
CONTINOUS
  0
LAYER
  5
35
330
2
100
AcDbSymbolTableRecord
100
AcDbLayerTableRecord
  2
16
 70
     0
 62
     6
  6
DASHDOT
  0
LAYER
  5
38
330
2
100
AcDbSymbolTableRecord
100
AcDbLayerTableRecord
  2
19
 70
     0
 62
     7
  6
CONTINOUS
  0
LAYER
  5
3C
330
2
100
AcDbSymbolTableRecord
100
AcDbLayerTableRecord
  2
11
 70
     0
 62
     1
  6
CONTINOUS
  0
LAYER
  5
3D
330
2
100
AcDbSymbolTableRecord
100
AcDbLayerTableRecord
  2
24
 70
     0
 62
     2
  6
CONTINOUS
  0
LAYER
  5
3A2
330
2
100
AcDbSymbolTableRecord
100
AcDbLayerTableRecord
  2
30
 70
     0
 62
     9
  6
CONTINUOUS
  0
LAYER
  5
3A4
330
2
100
AcDbSymbolTableRecord
100
AcDbLayerTableRecord
  2
DEFPOINTS
 70
     0
 62
     7
  6
CONTINUOUS
  0
LAYER
  5
3BBA
330
2
100
AcDbSymbolTableRecord
100
AcDbLayerTableRecord
  2
18
 70
     0
 62
     5
  6
DIVIDE
  0
LAYER
  5
5117
330
2
100
AcDbSymbolTableRecord
100
AcDbLayerTableRecord
  2
TOP
 70
     0
 62
     7
  6
CONTINUOUS
  0
LAYER
  5
5C47
330
2
100
AcDbSymbolTableRecord
100
AcDbLayerTableRecord
  2
17
 70
     0
 62
     2
  6
DASHDOT
  0
ENDTAB
  0
TABLE
  2
STYLE
  5
3
330
0
100
AcDbSymbolTable
 70
     3
  0
STYLE
  5
11
330
3
100
AcDbSymbolTableRecord
100
AcDbTextStyleTableRecord
  2
STANDARD
 70
     0
 40
0.0
 41
1.0
 50
0.0
 71
     0
 42
2.0
  3
txt.shx
  4
bigfont.shx
  0
STYLE
  5
42
330
3
100
AcDbSymbolTableRecord
100
AcDbTextStyleTableRecord
  2
STANDARD1
 70
     0
 40
0.0
 41
1.0
 50
0.0
 71
     0
 42
5.0
  3
MONOTXT
  4
BIGFONT
  0
STYLE
  5
5016
330
3
100
AcDbSymbolTableRecord
100
AcDbTextStyleTableRecord
  2
UGMTXT
 70
     0
 40
0.0
 41
1.0
 50
0.0
 71
     0
 42
0.2
  3
ugmtxt
  4
bigfont
  0
ENDTAB
  0
TABLE
  2
VIEW
  5
6
330
0
100
AcDbSymbolTable
 70
     3
  0
VIEW
  5
230C
330
6
100
AcDbSymbolTableRecord
100
AcDbViewTableRecord
  2
OLE1
 70
     0
 40
148.912488
 10
429.497628
 20
2.560627
 41
103.145806
 11
0.0
 21
0.0
 31
1.0
 12
0.0
 22
0.0
 32
0.0
 42
50.0
 43
0.0
 44
0.0
 50
0.0
 71
     0
  0
VIEW
  5
230E
330
6
100
AcDbSymbolTableRecord
100
AcDbViewTableRecord
  2
OLE2
 70
     0
 40
170.778692
 10
322.66497
 20
-5.978304
 41
102.467215
 11
0.0
 21
0.0
 31
1.0
 12
0.0
 22
0.0
 32
0.0
 42
50.0
 43
0.0
 44
0.0
 50
0.0
 71
     0
  0
VIEW
  5
23AA
330
6
100
AcDbSymbolTableRecord
100
AcDbViewTableRecord
  2
OLE3
 70
     0
 40
591.7897389999998
 10
84.79698199999999
 20
-46.09335999999998
 41
388.792096
 11
0.0
 21
0.0
 31
1.0
 12
0.0
 22
0.0
 32
0.0
 42
50.0
 43
0.0
 44
0.0
 50
0.0
 71
     0
  0
ENDTAB
  0
TABLE
  2
UCS
  5
7
330
0
100
AcDbSymbolTable
 70
     0
  0
ENDTAB
  0
TABLE
  2
APPID
  5
9
330
0
100
AcDbSymbolTable
 70
     2
  0
APPID
  5
12
330
9
100
AcDbSymbolTableRecord
100
AcDbRegAppTableRecord
  2
ACAD
 70
     0
  0
APPID
  5
ECD
330
9
100
AcDbSymbolTableRecord
100
AcDbRegAppTableRecord
  2
CONTENTBLOCKICON
 70
     0
  0
ENDTAB
  0
TABLE
  2
DIMSTYLE
  5
A
330
0
100
AcDbSymbolTable
 70
     1
  0
DIMSTYLE
105
175
102
{ACAD_REACTORS
330
6BE4
330
6D7C
330
6DAC
330
6DB9
330
6DC6
330
6DD3
330
6DE0
330
6E49
330
6E56
330
6E65
330
6E72
330
6E73
330
6ECF
330
6F6B
330
6F78
330
6F85
330
6F92
330
6F9F
330
6FAC
330
6FB9
330
6FD1
330
7134
330
721B
330
7235
330
7242
330
724F
330
728F
102
}
330
A
100
AcDbSymbolTableRecord
100
AcDbDimStyleTableRecord
  2
STANDARD
 70
     0
  3

  4

  5
OPEN
  6

  7

 40
1.0
 41
2.0
 42
1.0
 43
0.5
 44
0.5
 45
0.0
 46
0.0
 47
0.0
 48
0.0
140
4.0
141
0.09
142
0.0
143
25.4
144
1.0
145
0.0
146
1.0
147
1.0
 71
     0
 72
     0
 73
     0
 74
     1
 75
     0
 76
     0
 77
     3
 78
    12
170
     0
171
     2
172
     0
173
     0
174
     0
175
     0
176
     0
177
     0
178
     0
270
     2
271
     1
272
     1
273
     2
274
     2
340
11
275
     0
280
     0
281
     0
282
     0
283
     1
284
     0
285
     0
286
     0
287
     3
288
     0
  0
ENDTAB
  0
TABLE
  2
BLOCK_RECORD
  5
1
330
0
100
AcDbSymbolTable
 70
    30
  0
BLOCK_RECORD
  5
1E
102
{ACAD_XDICTIONARY
360
178
102
}
330
1
100
AcDbSymbolTableRecord
100
AcDbBlockTableRecord
  2
*MODEL_SPACE
  0
BLOCK_RECORD
  5
1A
102
{ACAD_XDICTIONARY
360
17A
102
}
330
1
100
AcDbSymbolTableRecord
100
AcDbBlockTableRecord
  2
*PAPER_SPACE
  0
BLOCK_RECORD
  5
3B2
330
1
100
AcDbSymbolTableRecord
100
AcDbBlockTableRecord
  2
_OPEN
  0
BLOCK_RECORD
  5
6C19
330
1
100
AcDbSymbolTableRecord
100
AcDbBlockTableRecord
  2
*D1
  0
BLOCK_RECORD
  5
6D7D
330
1
100
AcDbSymbolTableRecord
100
AcDbBlockTableRecord
  2
*D2
  0
BLOCK_RECORD
  5
6DAD
330
1
100
AcDbSymbolTableRecord
100
AcDbBlockTableRecord
  2
*D3
  0
BLOCK_RECORD
  5
6DBA
330
1
100
AcDbSymbolTableRecord
100
AcDbBlockTableRecord
  2
*D4
  0
BLOCK_RECORD
  5
6DC7
330
1
100
AcDbSymbolTableRecord
100
AcDbBlockTableRecord
  2
*D5
  0
BLOCK_RECORD
  5
6DD4
330
1
100
AcDbSymbolTableRecord
100
AcDbBlockTableRecord
  2
*D6
  0
BLOCK_RECORD
  5
6DE1
330
1
100
AcDbSymbolTableRecord
100
AcDbBlockTableRecord
  2
*D7
  0
BLOCK_RECORD
  5
6E4A
330
1
100
AcDbSymbolTableRecord
100
AcDbBlockTableRecord
  2
*D8
  0
BLOCK_RECORD
  5
6E57
330
1
100
AcDbSymbolTableRecord
100
AcDbBlockTableRecord
  2
*D9
  0
BLOCK_RECORD
  5
6E66
330
1
100
AcDbSymbolTableRecord
100
AcDbBlockTableRecord
  2
*D10
  0
BLOCK_RECORD
  5
6E74
330
1
100
AcDbSymbolTableRecord
100
AcDbBlockTableRecord
  2
*D11
  0
BLOCK_RECORD
  5
6E80
330
1
100
AcDbSymbolTableRecord
100
AcDbBlockTableRecord
  2
*D12
  0
BLOCK_RECORD
  5
6ED0
330
1
100
AcDbSymbolTableRecord
100
AcDbBlockTableRecord
  2
*D13
  0
BLOCK_RECORD
  5
6F6C
330
1
100
AcDbSymbolTableRecord
100
AcDbBlockTableRecord
  2
*D14
  0
BLOCK_RECORD
  5
6F79
330
1
100
AcDbSymbolTableRecord
100
AcDbBlockTableRecord
  2
*D15
  0
BLOCK_RECORD
  5
6F86
330
1
100
AcDbSymbolTableRecord
100
AcDbBlockTableRecord
  2
*D16
  0
BLOCK_RECORD
  5
6F93
330
1
100
AcDbSymbolTableRecord
100
AcDbBlockTableRecord
  2
*D17
  0
BLOCK_RECORD
  5
6FA0
330
1
100
AcDbSymbolTableRecord
100
AcDbBlockTableRecord
  2
*D18
  0
BLOCK_RECORD
  5
6FAD
330
1
100
AcDbSymbolTableRecord
100
AcDbBlockTableRecord
  2
*D19
  0
BLOCK_RECORD
  5
6FBA
330
1
100
AcDbSymbolTableRecord
100
AcDbBlockTableRecord
  2
*D20
  0
BLOCK_RECORD
  5
6FD2
330
1
100
AcDbSymbolTableRecord
100
AcDbBlockTableRecord
  2
*D21
  0
BLOCK_RECORD
  5
7135
330
1
100
AcDbSymbolTableRecord
100
AcDbBlockTableRecord
  2
*D22
  0
BLOCK_RECORD
  5
721C
330
1
100
AcDbSymbolTableRecord
100
AcDbBlockTableRecord
  2
*D23
  0
BLOCK_RECORD
  5
7229
330
1
100
AcDbSymbolTableRecord
100
AcDbBlockTableRecord
  2
*D24
  0
BLOCK_RECORD
  5
7236
330
1
100
AcDbSymbolTableRecord
100
AcDbBlockTableRecord
  2
*D25
  0
BLOCK_RECORD
  5
7243
330
1
100
AcDbSymbolTableRecord
100
AcDbBlockTableRecord
  2
*D26
  0
BLOCK_RECORD
  5
7250
330
1
100
AcDbSymbolTableRecord
100
AcDbBlockTableRecord
  2
*D27
  0
BLOCK_RECORD
  5
7290
330
1
100
AcDbSymbolTableRecord
100
AcDbBlockTableRecord
  2
*D28
  0
ENDTAB
  0
ENDSEC
  0
SECTION
  2
BLOCKS
  0
BLOCK
  5
1F
330
1E
100
AcDbEntity
  8
0
100
AcDbBlockBegin
  2
*MODEL_SPACE
 70
     0
 10
0.0
 20
0.0
 30
0.0
  3
*MODEL_SPACE
  1

  0
ENDBLK
  5
20
330
1E
100
AcDbEntity
  8
0
100
AcDbBlockEnd
  0
BLOCK
  5
1B
330
1A
100
AcDbEntity
 67
     1
  8
0
100
AcDbBlockBegin
  2
*PAPER_SPACE
 70
     0
 10
0.0
 20
0.0
 30
0.0
  3
*PAPER_SPACE
  1

  0
ENDBLK
  5
1C
330
1A
100
AcDbEntity
 67
     1
  8
0
100
AcDbBlockEnd
  0
BLOCK
  5
3B6
330
3B2
100
AcDbEntity
  8
0
100
AcDbBlockBegin
  2
_OPEN
 70
     0
 10
0.0
 20
0.0
 30
0.0
  3
_OPEN
  1

  0
LINE
  5
3B3
330
3B2
100
AcDbEntity
  8
30
  6
CONTINUOUS
 62
     0
100
AcDbLine
 10
-1.0
 20
0.166667
 30
0.0
 11
0.0
 21
0.0
 31
0.0
  0
LINE
  5
3B4
330
3B2
100
AcDbEntity
  8
30
  6
CONTINUOUS
 62
     0
100
AcDbLine
 10
-1.0
 20
-0.166667
 30
0.0
 11
0.0
 21
0.0
 31
0.0
  0
LINE
  5
3B5
330
3B2
100
AcDbEntity
  8
30
  6
CONTINUOUS
 62
     0
100
AcDbLine
 10
0.0
 20
0.0
 30
0.0
 11
-1.0
 21
0.0
 31
0.0
  0
ENDBLK
  5
3B7
330
3B2
100
AcDbEntity
  8
0
100
AcDbBlockEnd
  0
BLOCK
  5
6C23
330
6C19
100
AcDbEntity
  8
0
100
AcDbBlockBegin
  2
*D1
 70
     1
 10
0.0
 20
0.0
 30
0.0
  3
*D1
  1

  0
LINE
  5
6D41
330
6C19
100
AcDbEntity
  8
30
  6
CONTINUOUS
 62
     0
100
AcDbLine
 10
0.0000000000000001
 20
270.8933368984127
 30
0.0
 11
0.0000000000000025
 21
310.2406209576415
 31
0.0
  0
LINE
  5
6D42
330
6C19
100
AcDbEntity
  8
30
  6
CONTINUOUS
 62
     0
100
AcDbLine
 10
35.0
 20
273.8165692823121
 30
0.0
 11
35.0
 21
310.2406209576415
 31
0.0
  0
LINE
  5
6D43
330
6C19
100
AcDbEntity
  8
30
  6
CONTINUOUS
 62
     0
100
AcDbLine
 10
2.000000000000002
 20
309.7406209576415
 30
0.0
 11
33.0
 21
309.7406209576415
 31
0.0
  0
INSERT
  5
6D44
330
6C19
100
AcDbEntity
  8
30
  6
CONTINUOUS
 62
     0
100
AcDbBlockReference
  2
_OPEN
 10
0.0000000000000024
 20
309.7406209576415
 30
0.0
 41
2.0
 42
2.0
 43
2.0
 50
180.0
  0
INSERT
  5
6D45
330
6C19
100
AcDbEntity
  8
30
  6
CONTINUOUS
 62
     0
100
AcDbBlockReference
  2
_OPEN
 10
35.0
 20
309.7406209576415
 30
0.0
 41
2.0
 42
2.0
 43
2.0
  0
MTEXT
  5
6D46
330
6C19
100
AcDbEntity
  8
30
  6
CONTINUOUS
 62
     0
100
AcDbMText
 10
17.5
 20
312.7406209576415
 30
0.0
 40
4.0
 41
0.0
 71
     5
 72
     1
  1
\A1;35
1001
ACAD
1000
MTEXTBEGIN
1070
    73
1070
     1
1070
    44
1040
1.0
1070
    74
1070
     0
1000
MTEXTEND
1000
MTEXTBEGIN
1070
    73
1070
     1
1070
    44
1040
1.0
1070
    74
1070
     0
1000
MTEXTEND
1000
MTEXTBEGIN
1070
    73
1070
     1
1070
    44
1040
1.0
1070
    74
1070
     0
1000
MTEXTEND
  0
POINT
  5
6D47
330
6C19
100
AcDbEntity
  8
DEFPOINTS
  6
CONTINUOUS
 62
     0
100
AcDbPoint
 10
0.0
 20
269.8933368984127
 30
0.0
  0
POINT
  5
6D48
330
6C19
100
AcDbEntity
  8
DEFPOINTS
  6
CONTINUOUS
 62
     0
100
AcDbPoint
 10
35.0
 20
272.8165692823121
 30
0.0
  0
POINT
  5
6D49
330
6C19
100
AcDbEntity
  8
DEFPOINTS
  6
CONTINUOUS
 62
     0
100
AcDbPoint
 10
35.0
 20
309.7406209576415
 30
0.0
  0
ENDBLK
  5
6C24
330
6C19
100
AcDbEntity
  8
0
100
AcDbBlockEnd
  0
BLOCK
  5
6D87
330
6D7D
100
AcDbEntity
  8
0
100
AcDbBlockBegin
  2
*D2
 70
     1
 10
0.0
 20
0.0
 30
0.0
  3
*D2
  1

  0
LINE
  5
6D89
330
6D7D
100
AcDbEntity
  8
30
  6
CONTINUOUS
 62
     0
100
AcDbLine
 10
-35.0
 20
270.8933368984127
 30
0.0
 11
-35.0
 21
310.2406209576415
 31
0.0
  0
LINE
  5
6D8A
330
6D7D
100
AcDbEntity
  8
30
  6
CONTINUOUS
 62
     0
100
AcDbLine
 10
0.0000000000000001
 20
273.8165692823121
 30
0.0
 11
0.0000000000000023
 21
310.2406209576415
 31
0.0
  0
LINE
  5
6D8B
330
6D7D
100
AcDbEntity
  8
30
  6
CONTINUOUS
 62
     0
100
AcDbLine
 10
-33.0
 20
309.7406209576415
 30
0.0
 11
-1.999999999999995
 21
309.7406209576415
 31
0.0
  0
INSERT
  5
6D8C
330
6D7D
100
AcDbEntity
  8
30
  6
CONTINUOUS
 62
     0
100
AcDbBlockReference
  2
_OPEN
 10
-35.0
 20
309.7406209576415
 30
0.0
 41
2.0
 42
2.0
 43
2.0
 50
180.0
  0
INSERT
  5
6D8D
330
6D7D
100
AcDbEntity
  8
30
  6
CONTINUOUS
 62
     0
100
AcDbBlockReference
  2
_OPEN
 10
0.0000000000000023
 20
309.7406209576415
 30
0.0
 41
2.0
 42
2.0
 43
2.0
  0
MTEXT
  5
6D8E
330
6D7D
100
AcDbEntity
  8
30
  6
CONTINUOUS
 62
     0
100
AcDbMText
 10
-17.5
 20
312.7406209576415
 30
0.0
 40
4.0
 41
0.0
 71
     5
 72
     1
  1
\A1;35
1001
ACAD
1000
MTEXTBEGIN
1070
    73
1070
     1
1070
    44
1040
1.0
1070
    74
1070
     0
1000
MTEXTEND
1000
MTEXTBEGIN
1070
    73
1070
     1
1070
    44
1040
1.0
1070
    74
1070
     0
1000
MTEXTEND
1000
MTEXTBEGIN
1070
    73
1070
     1
1070
    44
1040
1.0
1070
    74
1070
     0
1000
MTEXTEND
  0
POINT
  5
6D8F
330
6D7D
100
AcDbEntity
  8
DEFPOINTS
  6
CONTINUOUS
 62
     0
100
AcDbPoint
 10
-35.0
 20
269.8933368984127
 30
0.0
  0
POINT
  5
6D90
330
6D7D
100
AcDbEntity
  8
DEFPOINTS
  6
CONTINUOUS
 62
     0
100
AcDbPoint
 10
0.0
 20
272.8165692823121
 30
0.0
  0
POINT
  5
6D91
330
6D7D
100
AcDbEntity
  8
DEFPOINTS
  6
CONTINUOUS
 62
     0
100
AcDbPoint
 10
0.0000000000000023
 20
309.7406209576415
 30
0.0
  0
ENDBLK
  5
6D88
330
6D7D
100
AcDbEntity
  8
0
100
AcDbBlockEnd
  0
BLOCK
  5
6DB7
330
6DAD
100
AcDbEntity
  8
0
100
AcDbBlockBegin
  2
*D3
 70
     1
 10
0.0
 20
0.0
 30
0.0
  3
*D3
  1

  0
LINE
  5
71F7
330
6DAD
100
AcDbEntity
  8
30
  6
CONTINUOUS
 62
     0
100
AcDbLine
 10
37.0
 20
114.0
 30
0.0
 11
37.0
 21
126.2139219802485
 31
0.0
  0
LINE
  5
71F8
330
6DAD
100
AcDbEntity
  8
30
  6
CONTINUOUS
 62
     0
100
AcDbLine
 10
60.0
 20
114.0
 30
0.0
 11
60.0
 21
126.2139219802485
 31
0.0
  0
LINE
  5
71F9
330
6DAD
100
AcDbEntity
  8
30
  6
CONTINUOUS
 62
     0
100
AcDbLine
 10
39.0
 20
125.7139219802485
 30
0.0
 11
58.0
 21
125.7139219802485
 31
0.0
  0
INSERT
  5
71FA
330
6DAD
100
AcDbEntity
  8
30
  6
CONTINUOUS
 62
     0
100
AcDbBlockReference
  2
_OPEN
 10
37.0
 20
125.7139219802485
 30
0.0
 41
2.0
 42
2.0
 43
2.0
 50
180.0
  0
INSERT
  5
71FB
330
6DAD
100
AcDbEntity
  8
30
  6
CONTINUOUS
 62
     0
100
AcDbBlockReference
  2
_OPEN
 10
60.0
 20
125.7139219802485
 30
0.0
 41
2.0
 42
2.0
 43
2.0
  0
MTEXT
  5
71FC
330
6DAD
100
AcDbEntity
  8
30
  6
CONTINUOUS
 62
     0
100
AcDbMText
 10
48.5
 20
128.7139219802485
 30
0.0
 40
4.0
 41
0.0
 71
     5
 72
     1
  1
\A1;23
1001
ACAD
1000
MTEXTBEGIN
1070
    73
1070
     1
1070
    44
1040
1.0
1070
    74
1070
     0
1000
MTEXTEND
1000
MTEXTBEGIN
1070
    73
1070
     1
1070
    44
1040
1.0
1070
    74
1070
     0
1000
MTEXTEND
1000
MTEXTBEGIN
1070
    73
1070
     1
1070
    44
1040
1.0
1070
    74
1070
     0
1000
MTEXTEND
  0
POINT
  5
71FD
330
6DAD
100
AcDbEntity
  8
DEFPOINTS
  6
CONTINUOUS
 62
     0
100
AcDbPoint
 10
37.0
 20
113.0
 30
0.0
  0
POINT
  5
71FE
330
6DAD
100
AcDbEntity
  8
DEFPOINTS
  6
CONTINUOUS
 62
     0
100
AcDbPoint
 10
60.0
 20
113.0
 30
0.0
  0
POINT
  5
71FF
330
6DAD
100
AcDbEntity
  8
DEFPOINTS
  6
CONTINUOUS
 62
     0
100
AcDbPoint
 10
60.0
 20
125.7139219802485
 30
0.0
  0
ENDBLK
  5
6DB8
330
6DAD
100
AcDbEntity
  8
0
100
AcDbBlockEnd
  0
BLOCK
  5
6DC4
330
6DBA
100
AcDbEntity
  8
0
100
AcDbBlockBegin
  2
*D4
 70
     1
 10
0.0
 20
0.0
 30
0.0
  3
*D4
  1

  0
LINE
  5
7200
330
6DBA
100
AcDbEntity
  8
30
  6
CONTINUOUS
 62
     0
100
AcDbLine
 10
57.0
 20
101.5
 30
0.0
 11
72.38107455351702
 21
101.5
 31
0.0
  0
LINE
  5
7201
330
6DBA
100
AcDbEntity
  8
30
  6
CONTINUOUS
 62
     0
100
AcDbLine
 10
61.0
 20
113.0
 30
0.0
 11
72.38107455351702
 21
113.0
 31
0.0
  0
LINE
  5
7202
330
6DBA
100
AcDbEntity
  8
30
  6
CONTINUOUS
 62
     0
100
AcDbLine
 10
71.88107455351702
 20
103.4999999999999
 30
0.0
 11
71.88107455351702
 21
111.0
 31
0.0
  0
INSERT
  5
7203
330
6DBA
100
AcDbEntity
  8
30
  6
CONTINUOUS
 62
     0
100
AcDbBlockReference
  2
_OPEN
 10
71.88107455351702
 20
101.5
 30
0.0
 41
2.0
 42
2.0
 43
2.0
 50
270.0
  0
INSERT
  5
7204
330
6DBA
100
AcDbEntity
  8
30
  6
CONTINUOUS
 62
     0
100
AcDbBlockReference
  2
_OPEN
 10
71.88107455351702
 20
113.0
 30
0.0
 41
2.0
 42
2.0
 43
2.0
 50
90.0
  0
MTEXT
  5
7205
330
6DBA
100
AcDbEntity
  8
30
  6
CONTINUOUS
 62
     0
100
AcDbMText
 10
68.88107455351698
 20
107.25
 30
0.0
 40
4.0
 41
0.0
 71
     5
 72
     1
  1
\A1;11.5
 11
0.0000000000000001
 21
1.0
 31
0.0
1001
ACAD
1000
MTEXTBEGIN
1070
    73
1070
     1
1070
    44
1040
1.0
1070
    74
1070
     0
1000
MTEXTEND
1000
MTEXTBEGIN
1070
    73
1070
     1
1070
    44
1040
1.0
1070
    74
1070
     0
1000
MTEXTEND
1000
MTEXTBEGIN
1070
    73
1070
     1
1070
    44
1040
1.0
1070
    74
1070
     0
1000
MTEXTEND
  0
POINT
  5
7206
330
6DBA
100
AcDbEntity
  8
DEFPOINTS
  6
CONTINUOUS
 62
     0
100
AcDbPoint
 10
56.0
 20
101.5
 30
0.0
  0
POINT
  5
7207
330
6DBA
100
AcDbEntity
  8
DEFPOINTS
  6
CONTINUOUS
 62
     0
100
AcDbPoint
 10
60.0
 20
113.0
 30
0.0
  0
POINT
  5
7208
330
6DBA
100
AcDbEntity
  8
DEFPOINTS
  6
CONTINUOUS
 62
     0
100
AcDbPoint
 10
71.88107455351702
 20
113.0
 30
0.0
  0
ENDBLK
  5
6DC5
330
6DBA
100
AcDbEntity
  8
0
100
AcDbBlockEnd
  0
BLOCK
  5
6DD1
330
6DC7
100
AcDbEntity
  8
0
100
AcDbBlockBegin
  2
*D5
 70
     1
 10
0.0
 20
0.0
 30
0.0
  3
*D5
  1

  0
LINE
  5
71EE
330
6DC7
100
AcDbEntity
  8
30
  6
CONTINUOUS
 62
     0
100
AcDbLine
 10
61.0
 20
113.0
 30
0.0
 11
79.72921446927786
 21
113.0
 31
0.0
  0
LINE
  5
71EF
330
6DC7
100
AcDbEntity
  8
30
  6
CONTINUOUS
 62
     0
100
AcDbLine
 10
67.0
 20
82.5
 30
0.0
 11
79.72921446927784
 21
82.5
 31
0.0
  0
LINE
  5
71F0
330
6DC7
100
AcDbEntity
  8
30
  6
CONTINUOUS
 62
     0
100
AcDbLine
 10
79.22921446927786
 20
111.0
 30
0.0
 11
79.22921446927784
 21
84.50000000000001
 31
0.0
  0
INSERT
  5
71F1
330
6DC7
100
AcDbEntity
  8
30
  6
CONTINUOUS
 62
     0
100
AcDbBlockReference
  2
_OPEN
 10
79.22921446927786
 20
113.0
 30
0.0
 41
2.0
 42
2.0
 43
2.0
 50
90.0
  0
INSERT
  5
71F2
330
6DC7
100
AcDbEntity
  8
30
  6
CONTINUOUS
 62
     0
100
AcDbBlockReference
  2
_OPEN
 10
79.22921446927784
 20
82.5
 30
0.0
 41
2.0
 42
2.0
 43
2.0
 50
270.0
  0
MTEXT
  5
71F3
330
6DC7
100
AcDbEntity
  8
30
  6
CONTINUOUS
 62
     0
100
AcDbMText
 10
76.22921446927783
 20
97.75000000000002
 30
0.0
 40
4.0
 41
0.0
 71
     5
 72
     1
  1
\A1;30.5
 11
0.0000000000000001
 21
1.0
 31
0.0
1001
ACAD
1000
MTEXTBEGIN
1070
    73
1070
     1
1070
    44
1040
1.0
1070
    74
1070
     0
1000
MTEXTEND
1000
MTEXTBEGIN
1070
    73
1070
     1
1070
    44
1040
1.0
1070
    74
1070
     0
1000
MTEXTEND
1000
MTEXTBEGIN
1070
    73
1070
     1
1070
    44
1040
1.0
1070
    74
1070
     0
1000
MTEXTEND
  0
POINT
  5
71F4
330
6DC7
100
AcDbEntity
  8
DEFPOINTS
  6
CONTINUOUS
 62
     0
100
AcDbPoint
 10
60.0
 20
113.0
 30
0.0
  0
POINT
  5
71F5
330
6DC7
100
AcDbEntity
  8
DEFPOINTS
  6
CONTINUOUS
 62
     0
100
AcDbPoint
 10
66.0
 20
82.5
 30
0.0
  0
POINT
  5
71F6
330
6DC7
100
AcDbEntity
  8
DEFPOINTS
  6
CONTINUOUS
 62
     0
100
AcDbPoint
 10
79.22921446927784
 20
82.5
 30
0.0
  0
ENDBLK
  5
6DD2
330
6DC7
100
AcDbEntity
  8
0
100
AcDbBlockEnd
  0
BLOCK
  5
6DDE
330
6DD4
100
AcDbEntity
  8
0
100
AcDbBlockBegin
  2
*D6
 70
     1
 10
0.0
 20
0.0
 30
0.0
  3
*D6
  1

  0
LINE
  5
6DD5
330
6DD4
100
AcDbEntity
  8
30
  6
CONTINUOUS
 62
     0
100
AcDbLine
 10
245.4371126716464
 20
83.51029255310345
 30
0.0
 11
245.4371126716464
 21
122.82636103358
 31
0.0
  0
LINE
  5
6DD6
330
6DD4
100
AcDbEntity
  8
30
  6
CONTINUOUS
 62
     0
100
AcDbLine
 10
186.4371126716464
 20
114.0102925531034
 30
0.0
 11
186.4371126716464
 21
122.82636103358
 31
0.0
  0
LINE
  5
6DD7
330
6DD4
100
AcDbEntity
  8
30
  6
CONTINUOUS
 62
     0
100
AcDbLine
 10
243.4371126716464
 20
122.32636103358
 30
0.0
 11
188.4371126716464
 21
122.32636103358
 31
0.0
  0
INSERT
  5
6DD8
330
6DD4
100
AcDbEntity
  8
30
  6
CONTINUOUS
 62
     0
100
AcDbBlockReference
  2
_OPEN
 10
245.4371126716464
 20
122.32636103358
 30
0.0
 41
2.0
 42
2.0
 43
2.0
  0
INSERT
  5
6DD9
330
6DD4
100
AcDbEntity
  8
30
  6
CONTINUOUS
 62
     0
100
AcDbBlockReference
  2
_OPEN
 10
186.4371126716464
 20
122.32636103358
 30
0.0
 41
2.0
 42
2.0
 43
2.0
 50
180.0
  0
MTEXT
  5
6DDA
330
6DD4
100
AcDbEntity
  8
30
  6
CONTINUOUS
 62
     0
100
AcDbMText
 10
215.9371126716464
 20
125.3263610335799
 30
0.0
 40
4.0
 41
0.0
 71
     5
 72
     1
  1
\A1;59
1001
ACAD
1000
MTEXTBEGIN
1070
    73
1070
     1
1070
    44
1040
1.0
1070
    74
1070
     0
1000
MTEXTEND
1000
MTEXTBEGIN
1070
    73
1070
     1
1070
    44
1040
1.0
1070
    74
1070
     0
1000
MTEXTEND
1000
MTEXTBEGIN
1070
    73
1070
     1
1070
    44
1040
1.0
1070
    74
1070
     0
1000
MTEXTEND
  0
POINT
  5
6DDB
330
6DD4
100
AcDbEntity
  8
DEFPOINTS
  6
CONTINUOUS
 62
     0
100
AcDbPoint
 10
245.4371126716464
 20
82.51029255310346
 30
0.0
  0
POINT
  5
6DDC
330
6DD4
100
AcDbEntity
  8
DEFPOINTS
  6
CONTINUOUS
 62
     0
100
AcDbPoint
 10
186.4371126716464
 20
113.0102925531034
 30
0.0
  0
POINT
  5
6DDD
330
6DD4
100
AcDbEntity
  8
DEFPOINTS
  6
CONTINUOUS
 62
     0
100
AcDbPoint
 10
186.4371126716464
 20
122.32636103358
 30
0.0
  0
ENDBLK
  5
6DDF
330
6DD4
100
AcDbEntity
  8
0
100
AcDbBlockEnd
  0
BLOCK
  5
6DEC
330
6DE1
100
AcDbEntity
  8
0
100
AcDbBlockBegin
  2
*D7
 70
     1
 10
0.0
 20
0.0
 30
0.0
  3
*D7
  1

  0
LINE
  5
6DE2
330
6DE1
100
AcDbEntity
  8
30
  6
CONTINUOUS
 62
     0
100
AcDbLine
 10
186.4371126716464
 20
114.0102925531034
 30
0.0
 11
186.4371126716464
 21
123.32636103358
 31
0.0
  0
LINE
  5
6DE3
330
6DE1
100
AcDbEntity
  8
30
  6
CONTINUOUS
 62
     0
100
AcDbLine
 10
182.4371126716464
 20
114.0102925531034
 30
0.0
 11
182.4371126716464
 21
123.32636103358
 31
0.0
  0
LINE
  5
6DE4
330
6DE1
100
AcDbEntity
  8
30
  6
CONTINUOUS
 62
     0
100
AcDbLine
 10
188.4371126716464
 20
122.82636103358
 30
0.0
 11
190.4371126716464
 21
122.82636103358
 31
0.0
  0
LINE
  5
6DE5
330
6DE1
100
AcDbEntity
  8
30
  6
CONTINUOUS
 62
     0
100
AcDbLine
 10
180.4371126716464
 20
122.82636103358
 30
0.0
 11
173.7704460049797
 21
122.82636103358
 31
0.0
  0
INSERT
  5
6DE6
330
6DE1
100
AcDbEntity
  8
30
  6
CONTINUOUS
 62
     0
100
AcDbBlockReference
  2
_OPEN
 10
186.4371126716464
 20
122.82636103358
 30
0.0
 41
2.0
 42
2.0
 43
2.0
 50
180.0
  0
INSERT
  5
6DE7
330
6DE1
100
AcDbEntity
  8
30
  6
CONTINUOUS
 62
     0
100
AcDbBlockReference
  2
_OPEN
 10
182.4371126716464
 20
122.82636103358
 30
0.0
 41
2.0
 42
2.0
 43
2.0
  0
MTEXT
  5
6DE8
330
6DE1
100
AcDbEntity
  8
30
  6
CONTINUOUS
 62
     0
100
AcDbMText
 10
176.1037793383131
 20
125.82636103358
 30
0.0
 40
4.0
 41
0.0
 71
     5
 72
     1
  1
\A1;4
1001
ACAD
1000
MTEXTBEGIN
1070
    73
1070
     1
1070
    44
1040
1.0
1070
    74
1070
     0
1000
MTEXTEND
1000
MTEXTBEGIN
1070
    73
1070
     1
1070
    44
1040
1.0
1070
    74
1070
     0
1000
MTEXTEND
1000
MTEXTBEGIN
1070
    73
1070
     1
1070
    44
1040
1.0
1070
    74
1070
     0
1000
MTEXTEND
  0
POINT
  5
6DE9
330
6DE1
100
AcDbEntity
  8
DEFPOINTS
  6
CONTINUOUS
 62
     0
100
AcDbPoint
 10
186.4371126716464
 20
113.0102925531034
 30
0.0
  0
POINT
  5
6DEA
330
6DE1
100
AcDbEntity
  8
DEFPOINTS
  6
CONTINUOUS
 62
     0
100
AcDbPoint
 10
182.4371126716464
 20
113.0102925531034
 30
0.0
  0
POINT
  5
6DEB
330
6DE1
100
AcDbEntity
  8
DEFPOINTS
  6
CONTINUOUS
 62
     0
100
AcDbPoint
 10
182.4371126716464
 20
122.82636103358
 30
0.0
  0
ENDBLK
  5
6DED
330
6DE1
100
AcDbEntity
  8
0
100
AcDbBlockEnd
  0
BLOCK
  5
6E54
330
6E4A
100
AcDbEntity
  8
0
100
AcDbBlockBegin
  2
*D8
 70
     1
 10
0.0
 20
0.0
 30
0.0
  3
*D8
  1

  0
LINE
  5
7212
330
6E4A
100
AcDbEntity
  8
30
  6
CONTINUOUS
 62
     0
100
AcDbLine
 10
-20.0
 20
182.5
 30
0.0
 11
-85.96797204212538
 21
182.5
 31
0.0
  0
LINE
  5
7213
330
6E4A
100
AcDbEntity
  8
30
  6
CONTINUOUS
 62
     0
100
AcDbLine
 10
-53.49999999999997
 20
82.5
 30
0.0
 11
-85.9679720421254
 21
82.5
 31
0.0
  0
LINE
  5
7214
330
6E4A
100
AcDbEntity
  8
30
  6
CONTINUOUS
 62
     0
100
AcDbLine
 10
-85.46797204212538
 20
180.4999999999999
 30
0.0
 11
-85.46797204212541
 21
84.50000000000001
 31
0.0
  0
INSERT
  5
7215
330
6E4A
100
AcDbEntity
  8
30
  6
CONTINUOUS
 62
     0
100
AcDbBlockReference
  2
_OPEN
 10
-85.46797204212538
 20
182.5
 30
0.0
 41
2.0
 42
2.0
 43
2.0
 50
90.0
  0
INSERT
  5
7216
330
6E4A
100
AcDbEntity
  8
30
  6
CONTINUOUS
 62
     0
100
AcDbBlockReference
  2
_OPEN
 10
-85.46797204212541
 20
82.5
 30
0.0
 41
2.0
 42
2.0
 43
2.0
 50
270.0
  0
MTEXT
  5
7217
330
6E4A
100
AcDbEntity
  8
30
  6
CONTINUOUS
 62
     0
100
AcDbMText
 10
-88.4679720421254
 20
132.4999999999999
 30
0.0
 40
4.0
 41
0.0
 71
     5
 72
     1
  1
\A1;100
 11
0.0000000000000001
 21
1.0
 31
0.0
1001
ACAD
1000
MTEXTBEGIN
1070
    73
1070
     1
1070
    44
1040
1.0
1070
    74
1070
     0
1000
MTEXTEND
1000
MTEXTBEGIN
1070
    73
1070
     1
1070
    44
1040
1.0
1070
    74
1070
     0
1000
MTEXTEND
1000
MTEXTBEGIN
1070
    73
1070
     1
1070
    44
1040
1.0
1070
    74
1070
     0
1000
MTEXTEND
  0
POINT
  5
7218
330
6E4A
100
AcDbEntity
  8
DEFPOINTS
  6
CONTINUOUS
 62
     0
100
AcDbPoint
 10
-19.0
 20
182.5
 30
0.0
  0
POINT
  5
7219
330
6E4A
100
AcDbEntity
  8
DEFPOINTS
  6
CONTINUOUS
 62
     0
100
AcDbPoint
 10
-52.49999999999997
 20
82.5
 30
0.0
  0
POINT
  5
721A
330
6E4A
100
AcDbEntity
  8
DEFPOINTS
  6
CONTINUOUS
 62
     0
100
AcDbPoint
 10
-85.46797204212541
 20
82.5
 30
0.0
  0
ENDBLK
  5
6E55
330
6E4A
100
AcDbEntity
  8
0
100
AcDbBlockEnd
  0
BLOCK
  5
6E61
330
6E57
100
AcDbEntity
  8
0
100
AcDbBlockBegin
  2
*D9
 70
     1
 10
0.0
 20
0.0
 30
0.0
  3
*D9
  1

  0
LINE
  5
7209
330
6E57
100
AcDbEntity
  8
30
  6
CONTINUOUS
 62
     0
100
AcDbLine
 10
-53.49999999999997
 20
82.5
 30
0.0
 11
-85.9679720421254
 21
82.5
 31
0.0
  0
LINE
  5
720A
330
6E57
100
AcDbEntity
  8
30
  6
CONTINUOUS
 62
     0
100
AcDbLine
 10
-53.49999999999997
 20
-82.5
 30
0.0
 11
-85.96797204212544
 21
-82.5
 31
0.0
  0
LINE
  5
720B
330
6E57
100
AcDbEntity
  8
30
  6
CONTINUOUS
 62
     0
100
AcDbLine
 10
-85.46797204212541
 20
80.5
 30
0.0
 11
-85.46797204212543
 21
-80.5
 31
0.0
  0
INSERT
  5
720C
330
6E57
100
AcDbEntity
  8
30
  6
CONTINUOUS
 62
     0
100
AcDbBlockReference
  2
_OPEN
 10
-85.46797204212541
 20
82.5
 30
0.0
 41
2.0
 42
2.0
 43
2.0
 50
90.0
  0
INSERT
  5
720D
330
6E57
100
AcDbEntity
  8
30
  6
CONTINUOUS
 62
     0
100
AcDbBlockReference
  2
_OPEN
 10
-85.46797204212543
 20
-82.5
 30
0.0
 41
2.0
 42
2.0
 43
2.0
 50
270.0
  0
MTEXT
  5
720E
330
6E57
100
AcDbEntity
  8
30
  6
CONTINUOUS
 62
     0
100
AcDbMText
 10
-88.4679720421254
 20
-0.0000000000000086
 30
0.0
 40
4.0
 41
0.0
 71
     5
 72
     1
  1
\A1;165
 11
0.0000000000000001
 21
1.0
 31
0.0
1001
ACAD
1000
MTEXTBEGIN
1070
    73
1070
     1
1070
    44
1040
1.0
1070
    74
1070
     0
1000
MTEXTEND
1000
MTEXTBEGIN
1070
    73
1070
     1
1070
    44
1040
1.0
1070
    74
1070
     0
1000
MTEXTEND
1000
MTEXTBEGIN
1070
    73
1070
     1
1070
    44
1040
1.0
1070
    74
1070
     0
1000
MTEXTEND
  0
POINT
  5
720F
330
6E57
100
AcDbEntity
  8
DEFPOINTS
  6
CONTINUOUS
 62
     0
100
AcDbPoint
 10
-52.49999999999997
 20
82.5
 30
0.0
  0
POINT
  5
7210
330
6E57
100
AcDbEntity
  8
DEFPOINTS
  6
CONTINUOUS
 62
     0
100
AcDbPoint
 10
-52.49999999999997
 20
-82.5
 30
0.0
  0
POINT
  5
7211
330
6E57
100
AcDbEntity
  8
DEFPOINTS
  6
CONTINUOUS
 62
     0
100
AcDbPoint
 10
-85.46797204212543
 20
-82.5
 30
0.0
  0
ENDBLK
  5
6E62
330
6E57
100
AcDbEntity
  8
0
100
AcDbBlockEnd
  0
BLOCK
  5
6E70
330
6E66
100
AcDbEntity
  8
0
100
AcDbBlockBegin
  2
*D10
 70
     1
 10
0.0
 20
0.0
 30
0.0
  3
*D10
  1

  0
LINE
  5
712B
330
6E66
100
AcDbEntity
  8
30
  6
CONTINUOUS
 62
     0
100
AcDbLine
 10
-11.38009453517119
 20
-187.0
 30
0.0
 11
79.07549392574359
 21
-187.0
 31
0.0
  0
LINE
  5
712C
330
6E66
100
AcDbEntity
  8
30
  6
CONTINUOUS
 62
     0
100
AcDbLine
 10
23.61990546482881
 20
-313.0
 30
0.0
 11
79.07549392574356
 21
-313.0
 31
0.0
  0
LINE
  5
712D
330
6E66
100
AcDbEntity
  8
30
  6
CONTINUOUS
 62
     0
100
AcDbLine
 10
78.57549392574359
 20
-189.0
 30
0.0
 11
78.57549392574355
 21
-311.0
 31
0.0
  0
INSERT
  5
712E
330
6E66
100
AcDbEntity
  8
30
  6
CONTINUOUS
 62
     0
100
AcDbBlockReference
  2
_OPEN
 10
78.57549392574359
 20
-187.0
 30
0.0
 41
2.0
 42
2.0
 43
2.0
 50
90.0
  0
INSERT
  5
712F
330
6E66
100
AcDbEntity
  8
30
  6
CONTINUOUS
 62
     0
100
AcDbBlockReference
  2
_OPEN
 10
78.57549392574355
 20
-313.0
 30
0.0
 41
2.0
 42
2.0
 43
2.0
 50
270.0
  0
MTEXT
  5
7130
330
6E66
100
AcDbEntity
  8
30
  6
CONTINUOUS
 62
     0
100
AcDbMText
 10
75.57549392574363
 20
-250.0
 30
0.0
 40
4.0
 41
0.0
 71
     5
 72
     1
  1
\A1;126
 11
0.0000000000000001
 21
1.0
 31
0.0
1001
ACAD
1000
MTEXTBEGIN
1070
    73
1070
     1
1070
    44
1040
1.0
1070
    74
1070
     0
1000
MTEXTEND
1000
MTEXTBEGIN
1070
    73
1070
     1
1070
    44
1040
1.0
1070
    74
1070
     0
1000
MTEXTEND
1000
MTEXTBEGIN
1070
    73
1070
     1
1070
    44
1040
1.0
1070
    74
1070
     0
1000
MTEXTEND
  0
POINT
  5
7131
330
6E66
100
AcDbEntity
  8
DEFPOINTS
  6
CONTINUOUS
 62
     0
100
AcDbPoint
 10
-12.38009453517117
 20
-187.0
 30
0.0
  0
POINT
  5
7132
330
6E66
100
AcDbEntity
  8
DEFPOINTS
  6
CONTINUOUS
 62
     0
100
AcDbPoint
 10
22.61990546482881
 20
-313.0
 30
0.0
  0
POINT
  5
7133
330
6E66
100
AcDbEntity
  8
DEFPOINTS
  6
CONTINUOUS
 62
     0
100
AcDbPoint
 10
78.57549392574355
 20
-313.0
 30
0.0
  0
ENDBLK
  5
6E71
330
6E66
100
AcDbEntity
  8
0
100
AcDbBlockEnd
  0
BLOCK
  5
6E7E
330
6E74
100
AcDbEntity
  8
0
100
AcDbBlockBegin
  2
*D11
 70
     1
 10
0.0
 20
0.0
 30
0.0
  3
*D11
  1

  0
LINE
  5
737E
330
6E74
100
AcDbEntity
  8
30
  6
CONTINUOUS
 62
     0
100
AcDbLine
 10
263.1199054648285
 20
-226.5
 30
0.0
 11
281.4029436113287
 21
-226.5
 31
0.0
  0
LINE
  5
737F
330
6E74
100
AcDbEntity
  8
30
  6
CONTINUOUS
 62
     0
100
AcDbLine
 10
264.3420532342502
 20
-273.4999999999999
 30
0.0
 11
281.4029436113287
 21
-273.4999999999999
 31
0.0
  0
LINE
  5
7380
330
6E74
100
AcDbEntity
  8
30
  6
CONTINUOUS
 62
     0
100
AcDbLine
 10
280.9029436113288
 20
-228.5
 30
0.0
 11
280.9029436113288
 21
-271.4999999999999
 31
0.0
  0
INSERT
  5
7381
330
6E74
100
AcDbEntity
  8
30
  6
CONTINUOUS
 62
     0
100
AcDbBlockReference
  2
_OPEN
 10
280.9029436113288
 20
-226.5
 30
0.0
 41
2.0
 42
2.0
 43
2.0
 50
90.0
  0
INSERT
  5
7382
330
6E74
100
AcDbEntity
  8
30
  6
CONTINUOUS
 62
     0
100
AcDbBlockReference
  2
_OPEN
 10
280.9029436113288
 20
-273.4999999999999
 30
0.0
 41
2.0
 42
2.0
 43
2.0
 50
270.0
  0
MTEXT
  5
7383
330
6E74
100
AcDbEntity
  8
30
  6
CONTINUOUS
 62
     0
100
AcDbMText
 10
277.9029436113288
 20
-249.9999999999999
 30
0.0
 40
4.0
 41
0.0
 71
     5
 72
     1
  1
\A1;47
 11
0.0000000000000001
 21
1.0
 31
0.0
1001
ACAD
1000
MTEXTBEGIN
1070
    73
1070
     1
1070
    44
1040
1.0
1070
    74
1070
     0
1000
MTEXTEND
  0
POINT
  5
7384
330
6E74
100
AcDbEntity
  8
DEFPOINTS
  6
CONTINUOUS
 62
     0
100
AcDbPoint
 10
262.1199054648286
 20
-226.5
 30
0.0
  0
POINT
  5
7385
330
6E74
100
AcDbEntity
  8
DEFPOINTS
  6
CONTINUOUS
 62
     0
100
AcDbPoint
 10
263.3420532342502
 20
-273.4999999999999
 30
0.0
  0
POINT
  5
7386
330
6E74
100
AcDbEntity
  8
DEFPOINTS
  6
CONTINUOUS
 62
     0
100
AcDbPoint
 10
280.9029436113288
 20
-273.4999999999999
 30
0.0
  0
ENDBLK
  5
6E7F
330
6E74
100
AcDbEntity
  8
0
100
AcDbBlockEnd
  0
BLOCK
  5
6E89
330
6E80
100
AcDbEntity
  8
0
100
AcDbBlockBegin
  2
*D12
 70
     1
 10
0.0
 20
0.0
 30
0.0
  3
*D12
  1

  0
LINE
  5
736D
330
6E80
100
AcDbEntity
  8
30
  6
CONTINUOUS
 62
     0
100
AcDbLine
 10
272.5829195267654
 20
-224.6811816163855
 30
0.0
 11
266.249586193432
 21
-224.6811816163855
 31
0.0
  0
LINE
  5
736E
330
6E80
100
AcDbEntity
  8
30
  6
CONTINUOUS
 62
     0
100
AcDbLine
 10
266.249586193432
 20
-224.6811816163855
 30
0.0
 11
264.5977139019906
 21
-225.8087089698313
 31
0.0
  0
MTEXT
  5
736F
330
6E80
100
AcDbEntity
  8
30
  6
CONTINUOUS
 62
     0
100
AcDbMText
 10
269.9162528600987
 20
-221.6811816163855
 30
0.0
 40
4.0
 41
0.0
 71
     5
 72
     1
  1
\A1;R1
1001
ACAD
1000
MTEXTBEGIN
1070
    73
1070
     1
1070
    44
1040
1.0
1070
    74
1070
     0
1000
MTEXTEND
  0
INSERT
  5
7370
330
6E80
100
AcDbEntity
  8
30
  6
CONTINUOUS
 62
     0
100
AcDbBlockReference
  2
_OPEN
 10
262.9458416105493
 20
-226.936236323277
 30
0.0
 41
2.0
 42
2.0
 43
2.0
 50
214.3164827908751
  0
LINE
  5
7371
330
6E80
100
AcDbEntity
  8
30
  6
CONTINUOUS
 62
     0
100
AcDbLine
 10
262.0299054648285
 20
-227.4999999999999
 30
0.0
 11
262.2099054648284
 21
-227.4999999999999
 31
0.0
  0
LINE
  5
7372
330
6E80
100
AcDbEntity
  8
30
  6
CONTINUOUS
 62
     0
100
AcDbLine
 10
262.1199054648284
 20
-227.5899999999999
 30
0.0
 11
262.1199054648285
 21
-227.4099999999999
 31
0.0
  0
POINT
  5
7373
330
6E80
100
AcDbEntity
  8
DEFPOINTS
  6
CONTINUOUS
 62
     0
100
AcDbPoint
 10
262.9458416105493
 20
-226.936236323277
 30
0.0
  0
POINT
  5
7374
330
6E80
100
AcDbEntity
  8
DEFPOINTS
  6
CONTINUOUS
 62
     0
100
AcDbPoint
 10
262.1199054648285
 20
-227.4999999999999
 30
0.0
  0
ENDBLK
  5
6E8A
330
6E80
100
AcDbEntity
  8
0
100
AcDbBlockEnd
  0
BLOCK
  5
6EDA
330
6ED0
100
AcDbEntity
  8
0
100
AcDbBlockBegin
  2
*D13
 70
     1
 10
0.0
 20
0.0
 30
0.0
  3
*D13
  1

  0
LINE
  5
7375
330
6ED0
100
AcDbEntity
  8
30
  6
CONTINUOUS
 62
     0
100
AcDbLine
 10
156.1199054648288
 20
-273.4999999999999
 30
0.0
 11
156.1199054648288
 21
-359.8804450066013
 31
0.0
  0
LINE
  5
7376
330
6ED0
100
AcDbEntity
  8
30
  6
CONTINUOUS
 62
     0
100
AcDbLine
 10
263.1199054648285
 20
-273.4999999999999
 30
0.0
 11
263.1199054648285
 21
-359.8804450066013
 31
0.0
  0
LINE
  5
7377
330
6ED0
100
AcDbEntity
  8
30
  6
CONTINUOUS
 62
     0
100
AcDbLine
 10
158.1199054648288
 20
-359.3804450066013
 30
0.0
 11
261.1199054648285
 21
-359.3804450066013
 31
0.0
  0
INSERT
  5
7378
330
6ED0
100
AcDbEntity
  8
30
  6
CONTINUOUS
 62
     0
100
AcDbBlockReference
  2
_OPEN
 10
156.1199054648288
 20
-359.3804450066013
 30
0.0
 41
2.0
 42
2.0
 43
2.0
 50
180.0
  0
INSERT
  5
7379
330
6ED0
100
AcDbEntity
  8
30
  6
CONTINUOUS
 62
     0
100
AcDbBlockReference
  2
_OPEN
 10
263.1199054648285
 20
-359.3804450066013
 30
0.0
 41
2.0
 42
2.0
 43
2.0
  0
MTEXT
  5
737A
330
6ED0
100
AcDbEntity
  8
30
  6
CONTINUOUS
 62
     0
100
AcDbMText
 10
209.6199054648287
 20
-356.3804450066013
 30
0.0
 40
4.0
 41
0.0
 71
     5
 72
     1
  1
\A1;107
1001
ACAD
1000
MTEXTBEGIN
1070
    73
1070
     1
1070
    44
1040
1.0
1070
    74
1070
     0
1000
MTEXTEND
  0
POINT
  5
737B
330
6ED0
100
AcDbEntity
  8
DEFPOINTS
  6
CONTINUOUS
 62
     0
100
AcDbPoint
 10
156.1199054648288
 20
-272.5
 30
0.0
  0
POINT
  5
737C
330
6ED0
100
AcDbEntity
  8
DEFPOINTS
  6
CONTINUOUS
 62
     0
100
AcDbPoint
 10
263.1199054648285
 20
-272.5
 30
0.0
  0
POINT
  5
737D
330
6ED0
100
AcDbEntity
  8
DEFPOINTS
  6
CONTINUOUS
 62
     0
100
AcDbPoint
 10
263.1199054648285
 20
-359.3804450066013
 30
0.0
  0
ENDBLK
  5
6EDB
330
6ED0
100
AcDbEntity
  8
0
100
AcDbBlockEnd
  0
BLOCK
  5
6F76
330
6F6C
100
AcDbEntity
  8
0
100
AcDbBlockBegin
  2
*D14
 70
     1
 10
0.0
 20
0.0
 30
0.0
  3
*D14
  1

  0
LINE
  5
7325
330
6F6C
100
AcDbEntity
  8
30
  6
CONTINUOUS
 62
     0
100
AcDbLine
 10
133.4371126716464
 20
22.51029255310344
 30
0.0
 11
110.9688600635148
 21
22.51029255310344
 31
0.0
  0
LINE
  5
7326
330
6F6C
100
AcDbEntity
  8
30
  6
CONTINUOUS
 62
     0
100
AcDbLine
 10
133.4371126716464
 20
-22.48970744689652
 30
0.0
 11
110.9688600635148
 21
-22.48970744689652
 31
0.0
  0
LINE
  5
7327
330
6F6C
100
AcDbEntity
  8
30
  6
CONTINUOUS
 62
     0
100
AcDbLine
 10
111.4688600635149
 20
20.51029255310344
 30
0.0
 11
111.4688600635149
 21
-20.48970744689652
 31
0.0
  0
INSERT
  5
7328
330
6F6C
100
AcDbEntity
  8
30
  6
CONTINUOUS
 62
     0
100
AcDbBlockReference
  2
_OPEN
 10
111.4688600635149
 20
22.51029255310344
 30
0.0
 41
2.0
 42
2.0
 43
2.0
 50
90.0
  0
INSERT
  5
7329
330
6F6C
100
AcDbEntity
  8
30
  6
CONTINUOUS
 62
     0
100
AcDbBlockReference
  2
_OPEN
 10
111.4688600635149
 20
-22.48970744689652
 30
0.0
 41
2.0
 42
2.0
 43
2.0
 50
270.0
  0
MTEXT
  5
732A
330
6F6C
100
AcDbEntity
  8
30
  6
CONTINUOUS
 62
     0
100
AcDbMText
 10
108.4688600635149
 20
0.0102925531034799
 30
0.0
 40
4.0
 41
0.0
 71
     5
 72
     1
  1
\A1;45
 11
0.0000000000000001
 21
1.0
 31
0.0
1001
ACAD
1000
MTEXTBEGIN
1070
    73
1070
     1
1070
    44
1040
1.0
1070
    74
1070
     0
1000
MTEXTEND
  0
POINT
  5
732B
330
6F6C
100
AcDbEntity
  8
DEFPOINTS
  6
CONTINUOUS
 62
     0
100
AcDbPoint
 10
134.4371126716464
 20
22.51029255310344
 30
0.0
  0
POINT
  5
732C
330
6F6C
100
AcDbEntity
  8
DEFPOINTS
  6
CONTINUOUS
 62
     0
100
AcDbPoint
 10
134.4371126716464
 20
-22.48970744689652
 30
0.0
  0
POINT
  5
732D
330
6F6C
100
AcDbEntity
  8
DEFPOINTS
  6
CONTINUOUS
 62
     0
100
AcDbPoint
 10
111.4688600635149
 20
-22.48970744689652
 30
0.0
  0
ENDBLK
  5
6F77
330
6F6C
100
AcDbEntity
  8
0
100
AcDbBlockEnd
  0
BLOCK
  5
6F83
330
6F79
100
AcDbEntity
  8
0
100
AcDbBlockBegin
  2
*D15
 70
     1
 10
0.0
 20
0.0
 30
0.0
  3
*D15
  1

  0
LINE
  5
6F7A
330
6F79
100
AcDbEntity
  8
30
  6
CONTINUOUS
 62
     0
100
AcDbLine
 10
253.4371126716464
 20
-66.23970744689654
 30
0.0
 11
253.4371126716464
 21
-92.14127065798903
 31
0.0
  0
LINE
  5
6F7B
330
6F79
100
AcDbEntity
  8
30
  6
CONTINUOUS
 62
     0
100
AcDbLine
 10
245.4371126716464
 20
-83.48970744689655
 30
0.0
 11
245.4371126716464
 21
-92.14127065798903
 31
0.0
  0
LINE
  5
6F7C
330
6F79
100
AcDbEntity
  8
30
  6
CONTINUOUS
 62
     0
100
AcDbLine
 10
251.4371126716464
 20
-91.64127065798902
 30
0.0
 11
247.4371126716464
 21
-91.64127065798902
 31
0.0
  0
INSERT
  5
6F7D
330
6F79
100
AcDbEntity
  8
30
  6
CONTINUOUS
 62
     0
100
AcDbBlockReference
  2
_OPEN
 10
253.4371126716464
 20
-91.64127065798902
 30
0.0
 41
2.0
 42
2.0
 43
2.0
  0
INSERT
  5
6F7E
330
6F79
100
AcDbEntity
  8
30
  6
CONTINUOUS
 62
     0
100
AcDbBlockReference
  2
_OPEN
 10
245.4371126716464
 20
-91.64127065798902
 30
0.0
 41
2.0
 42
2.0
 43
2.0
 50
180.0
  0
MTEXT
  5
6F7F
330
6F79
100
AcDbEntity
  8
30
  6
CONTINUOUS
 62
     0
100
AcDbMText
 10
249.4371126716464
 20
-88.64127065798902
 30
0.0
 40
4.0
 41
0.0
 71
     5
 72
     1
  1
\A1;8
1001
ACAD
1000
MTEXTBEGIN
1070
    73
1070
     1
1070
    44
1040
1.0
1070
    74
1070
     0
1000
MTEXTEND
1000
MTEXTBEGIN
1070
    73
1070
     1
1070
    44
1040
1.0
1070
    74
1070
     0
1000
MTEXTEND
1000
MTEXTBEGIN
1070
    73
1070
     1
1070
    44
1040
1.0
1070
    74
1070
     0
1000
MTEXTEND
  0
POINT
  5
6F80
330
6F79
100
AcDbEntity
  8
DEFPOINTS
  6
CONTINUOUS
 62
     0
100
AcDbPoint
 10
253.4371126716464
 20
-65.23970744689655
 30
0.0
  0
POINT
  5
6F81
330
6F79
100
AcDbEntity
  8
DEFPOINTS
  6
CONTINUOUS
 62
     0
100
AcDbPoint
 10
245.4371126716464
 20
-82.48970744689655
 30
0.0
  0
POINT
  5
6F82
330
6F79
100
AcDbEntity
  8
DEFPOINTS
  6
CONTINUOUS
 62
     0
100
AcDbPoint
 10
245.4371126716464
 20
-91.64127065798902
 30
0.0
  0
ENDBLK
  5
6F84
330
6F79
100
AcDbEntity
  8
0
100
AcDbBlockEnd
  0
BLOCK
  5
6F90
330
6F86
100
AcDbEntity
  8
0
100
AcDbBlockBegin
  2
*D16
 70
     1
 10
0.0
 20
0.0
 30
0.0
  3
*D16
  1

  0
LINE
  5
73D8
330
6F86
100
AcDbEntity
  8
30
  6
CONTINUOUS
 62
     0
100
AcDbLine
 10
245.4371126716464
 20
-83.48970744689655
 30
0.0
 11
245.4371126716464
 21
-92.14127065798903
 31
0.0
  0
LINE
  5
73D9
330
6F86
100
AcDbEntity
  8
30
  6
CONTINUOUS
 62
     0
100
AcDbLine
 10
165.4371126716464
 20
-68.23970744689654
 30
0.0
 11
165.4371126716464
 21
-92.14127065798903
 31
0.0
  0
LINE
  5
73DA
330
6F86
100
AcDbEntity
  8
30
  6
CONTINUOUS
 62
     0
100
AcDbLine
 10
243.4371126716464
 20
-91.64127065798902
 30
0.0
 11
167.4371126716464
 21
-91.64127065798902
 31
0.0
  0
INSERT
  5
73DB
330
6F86
100
AcDbEntity
  8
30
  6
CONTINUOUS
 62
     0
100
AcDbBlockReference
  2
_OPEN
 10
245.4371126716464
 20
-91.64127065798902
 30
0.0
 41
2.0
 42
2.0
 43
2.0
  0
INSERT
  5
73DC
330
6F86
100
AcDbEntity
  8
30
  6
CONTINUOUS
 62
     0
100
AcDbBlockReference
  2
_OPEN
 10
165.4371126716464
 20
-91.64127065798902
 30
0.0
 41
2.0
 42
2.0
 43
2.0
 50
180.0
  0
MTEXT
  5
73DD
330
6F86
100
AcDbEntity
  8
30
  6
CONTINUOUS
 62
     0
100
AcDbMText
 10
205.4371126716464
 20
-88.64127065798902
 30
0.0
 40
4.0
 41
0.0
 71
     5
 72
     1
  1
\A1;80
  0
POINT
  5
73DE
330
6F86
100
AcDbEntity
  8
DEFPOINTS
  6
CONTINUOUS
 62
     0
100
AcDbPoint
 10
245.4371126716464
 20
-82.48970744689655
 30
0.0
  0
POINT
  5
73DF
330
6F86
100
AcDbEntity
  8
DEFPOINTS
  6
CONTINUOUS
 62
     0
100
AcDbPoint
 10
165.4371126716464
 20
-67.23970744689655
 30
0.0
  0
POINT
  5
73E0
330
6F86
100
AcDbEntity
  8
DEFPOINTS
  6
CONTINUOUS
 62
     0
100
AcDbPoint
 10
165.4371126716464
 20
-91.64127065798902
 30
0.0
  0
ENDBLK
  5
6F91
330
6F86
100
AcDbEntity
  8
0
100
AcDbBlockEnd
  0
BLOCK
  5
6F9D
330
6F93
100
AcDbEntity
  8
0
100
AcDbBlockBegin
  2
*D17
 70
     1
 10
0.0
 20
0.0
 30
0.0
  3
*D17
  1

  0
LINE
  5
6F94
330
6F93
100
AcDbEntity
  8
30
  6
CONTINUOUS
 62
     0
100
AcDbLine
 10
245.4371126716464
 20
-83.48970744689655
 30
0.0
 11
245.4371126716464
 21
-104.139399700592
 31
0.0
  0
LINE
  5
6F95
330
6F93
100
AcDbEntity
  8
30
  6
CONTINUOUS
 62
     0
100
AcDbLine
 10
149.4371126716464
 20
-83.48970744689655
 30
0.0
 11
149.4371126716464
 21
-104.139399700592
 31
0.0
  0
LINE
  5
6F96
330
6F93
100
AcDbEntity
  8
30
  6
CONTINUOUS
 62
     0
100
AcDbLine
 10
243.4371126716464
 20
-103.6393997005921
 30
0.0
 11
151.4371126716464
 21
-103.6393997005921
 31
0.0
  0
INSERT
  5
6F97
330
6F93
100
AcDbEntity
  8
30
  6
CONTINUOUS
 62
     0
100
AcDbBlockReference
  2
_OPEN
 10
245.4371126716464
 20
-103.6393997005921
 30
0.0
 41
2.0
 42
2.0
 43
2.0
  0
INSERT
  5
6F98
330
6F93
100
AcDbEntity
  8
30
  6
CONTINUOUS
 62
     0
100
AcDbBlockReference
  2
_OPEN
 10
149.4371126716464
 20
-103.6393997005921
 30
0.0
 41
2.0
 42
2.0
 43
2.0
 50
180.0
  0
MTEXT
  5
6F99
330
6F93
100
AcDbEntity
  8
30
  6
CONTINUOUS
 62
     0
100
AcDbMText
 10
197.4371126716464
 20
-100.6393997005921
 30
0.0
 40
4.0
 41
0.0
 71
     5
 72
     1
  1
\A1;96
1001
ACAD
1000
MTEXTBEGIN
1070
    73
1070
     1
1070
    44
1040
1.0
1070
    74
1070
     0
1000
MTEXTEND
1000
MTEXTBEGIN
1070
    73
1070
     1
1070
    44
1040
1.0
1070
    74
1070
     0
1000
MTEXTEND
1000
MTEXTBEGIN
1070
    73
1070
     1
1070
    44
1040
1.0
1070
    74
1070
     0
1000
MTEXTEND
  0
POINT
  5
6F9A
330
6F93
100
AcDbEntity
  8
DEFPOINTS
  6
CONTINUOUS
 62
     0
100
AcDbPoint
 10
245.4371126716464
 20
-82.48970744689655
 30
0.0
  0
POINT
  5
6F9B
330
6F93
100
AcDbEntity
  8
DEFPOINTS
  6
CONTINUOUS
 62
     0
100
AcDbPoint
 10
149.4371126716464
 20
-82.48970744689655
 30
0.0
  0
POINT
  5
6F9C
330
6F93
100
AcDbEntity
  8
DEFPOINTS
  6
CONTINUOUS
 62
     0
100
AcDbPoint
 10
149.4371126716464
 20
-103.6393997005921
 30
0.0
  0
ENDBLK
  5
6F9E
330
6F93
100
AcDbEntity
  8
0
100
AcDbBlockEnd
  0
BLOCK
  5
6FAA
330
6FA0
100
AcDbEntity
  8
0
100
AcDbBlockBegin
  2
*D18
 70
     1
 10
0.0
 20
0.0
 30
0.0
  3
*D18
  1

  0
LINE
  5
6FA1
330
6FA0
100
AcDbEntity
  8
30
  6
CONTINUOUS
 62
     0
100
AcDbLine
 10
245.4371126716464
 20
-83.48970744689655
 30
0.0
 11
245.4371126716464
 21
-118.6634516797933
 31
0.0
  0
LINE
  5
6FA2
330
6FA0
100
AcDbEntity
  8
30
  6
CONTINUOUS
 62
     0
100
AcDbLine
 10
142.4371126716464
 20
-51.98970744689654
 30
0.0
 11
142.4371126716464
 21
-118.6634516797933
 31
0.0
  0
LINE
  5
6FA3
330
6FA0
100
AcDbEntity
  8
30
  6
CONTINUOUS
 62
     0
100
AcDbLine
 10
243.4371126716464
 20
-118.1634516797932
 30
0.0
 11
144.4371126716464
 21
-118.1634516797932
 31
0.0
  0
INSERT
  5
6FA4
330
6FA0
100
AcDbEntity
  8
30
  6
CONTINUOUS
 62
     0
100
AcDbBlockReference
  2
_OPEN
 10
245.4371126716464
 20
-118.1634516797932
 30
0.0
 41
2.0
 42
2.0
 43
2.0
  0
INSERT
  5
6FA5
330
6FA0
100
AcDbEntity
  8
30
  6
CONTINUOUS
 62
     0
100
AcDbBlockReference
  2
_OPEN
 10
142.4371126716464
 20
-118.1634516797932
 30
0.0
 41
2.0
 42
2.0
 43
2.0
 50
180.0
  0
MTEXT
  5
6FA6
330
6FA0
100
AcDbEntity
  8
30
  6
CONTINUOUS
 62
     0
100
AcDbMText
 10
193.9371126716464
 20
-115.1634516797932
 30
0.0
 40
4.0
 41
0.0
 71
     5
 72
     1
  1
\A1;103
1001
ACAD
1000
MTEXTBEGIN
1070
    73
1070
     1
1070
    44
1040
1.0
1070
    74
1070
     0
1000
MTEXTEND
1000
MTEXTBEGIN
1070
    73
1070
     1
1070
    44
1040
1.0
1070
    74
1070
     0
1000
MTEXTEND
1000
MTEXTBEGIN
1070
    73
1070
     1
1070
    44
1040
1.0
1070
    74
1070
     0
1000
MTEXTEND
  0
POINT
  5
6FA7
330
6FA0
100
AcDbEntity
  8
DEFPOINTS
  6
CONTINUOUS
 62
     0
100
AcDbPoint
 10
245.4371126716464
 20
-82.48970744689655
 30
0.0
  0
POINT
  5
6FA8
330
6FA0
100
AcDbEntity
  8
DEFPOINTS
  6
CONTINUOUS
 62
     0
100
AcDbPoint
 10
142.4371126716464
 20
-50.98970744689655
 30
0.0
  0
POINT
  5
6FA9
330
6FA0
100
AcDbEntity
  8
DEFPOINTS
  6
CONTINUOUS
 62
     0
100
AcDbPoint
 10
142.4371126716464
 20
-118.1634516797932
 30
0.0
  0
ENDBLK
  5
6FAB
330
6FA0
100
AcDbEntity
  8
0
100
AcDbBlockEnd
  0
BLOCK
  5
6FB7
330
6FAD
100
AcDbEntity
  8
0
100
AcDbBlockBegin
  2
*D19
 70
     1
 10
0.0
 20
0.0
 30
0.0
  3
*D19
  1

  0
LINE
  5
731C
330
6FAD
100
AcDbEntity
  8
30
  6
CONTINUOUS
 62
     0
100
AcDbLine
 10
245.4371126716464
 20
-83.48970744689655
 30
0.0
 11
245.4371126716464
 21
-129.3986215185148
 31
0.0
  0
LINE
  5
731D
330
6FAD
100
AcDbEntity
  8
30
  6
CONTINUOUS
 62
     0
100
AcDbLine
 10
138.4371126716464
 20
-23.48970744689653
 30
0.0
 11
138.4371126716464
 21
-129.3986215185148
 31
0.0
  0
LINE
  5
731E
330
6FAD
100
AcDbEntity
  8
30
  6
CONTINUOUS
 62
     0
100
AcDbLine
 10
243.4371126716464
 20
-128.8986215185148
 30
0.0
 11
140.4371126716464
 21
-128.8986215185148
 31
0.0
  0
INSERT
  5
731F
330
6FAD
100
AcDbEntity
  8
30
  6
CONTINUOUS
 62
     0
100
AcDbBlockReference
  2
_OPEN
 10
245.4371126716464
 20
-128.8986215185148
 30
0.0
 41
2.0
 42
2.0
 43
2.0
  0
INSERT
  5
7320
330
6FAD
100
AcDbEntity
  8
30
  6
CONTINUOUS
 62
     0
100
AcDbBlockReference
  2
_OPEN
 10
138.4371126716464
 20
-128.8986215185148
 30
0.0
 41
2.0
 42
2.0
 43
2.0
 50
180.0
  0
MTEXT
  5
7321
330
6FAD
100
AcDbEntity
  8
30
  6
CONTINUOUS
 62
     0
100
AcDbMText
 10
191.9371126716464
 20
-125.8986215185148
 30
0.0
 40
4.0
 41
0.0
 71
     5
 72
     1
  1
\A1;107
1001
ACAD
1000
MTEXTBEGIN
1070
    73
1070
     1
1070
    44
1040
1.0
1070
    74
1070
     0
1000
MTEXTEND
  0
POINT
  5
7322
330
6FAD
100
AcDbEntity
  8
DEFPOINTS
  6
CONTINUOUS
 62
     0
100
AcDbPoint
 10
245.4371126716464
 20
-82.48970744689655
 30
0.0
  0
POINT
  5
7323
330
6FAD
100
AcDbEntity
  8
DEFPOINTS
  6
CONTINUOUS
 62
     0
100
AcDbPoint
 10
138.4371126716464
 20
-22.48970744689652
 30
0.0
  0
POINT
  5
7324
330
6FAD
100
AcDbEntity
  8
DEFPOINTS
  6
CONTINUOUS
 62
     0
100
AcDbPoint
 10
138.4371126716464
 20
-128.8986215185148
 30
0.0
  0
ENDBLK
  5
6FB8
330
6FAD
100
AcDbEntity
  8
0
100
AcDbBlockEnd
  0
BLOCK
  5
6FC5
330
6FBA
100
AcDbEntity
  8
0
100
AcDbBlockBegin
  2
*D20
 70
     1
 10
0.0
 20
0.0
 30
0.0
  3
*D20
  1

  0
LINE
  5
7337
330
6FBA
100
AcDbEntity
  8
30
  6
CONTINUOUS
 62
     0
100
AcDbLine
 10
134.4371126716464
 20
-23.48970744689653
 30
0.0
 11
134.4371126716464
 21
-129.8986215185148
 31
0.0
  0
LINE
  5
7338
330
6FBA
100
AcDbEntity
  8
30
  6
CONTINUOUS
 62
     0
100
AcDbLine
 10
138.4371126716464
 20
-128.3986215185147
 30
0.0
 11
138.4371126716464
 21
-128.8986215185148
 31
0.0
  0
LINE
  5
7339
330
6FBA
100
AcDbEntity
  8
30
  6
CONTINUOUS
 62
     0
100
AcDbLine
 10
132.4371126716464
 20
-129.3986215185148
 30
0.0
 11
130.4371126716464
 21
-129.3986215185148
 31
0.0
  0
LINE
  5
733A
330
6FBA
100
AcDbEntity
  8
30
  6
CONTINUOUS
 62
     0
100
AcDbLine
 10
140.4371126716464
 20
-129.3986215185148
 30
0.0
 11
147.103779338313
 21
-129.3986215185148
 31
0.0
  0
INSERT
  5
733B
330
6FBA
100
AcDbEntity
  8
30
  6
CONTINUOUS
 62
     0
100
AcDbBlockReference
  2
_OPEN
 10
134.4371126716464
 20
-129.3986215185148
 30
0.0
 41
2.0
 42
2.0
 43
2.0
  0
INSERT
  5
733C
330
6FBA
100
AcDbEntity
  8
30
  6
CONTINUOUS
 62
     0
100
AcDbBlockReference
  2
_OPEN
 10
138.4371126716464
 20
-129.3986215185148
 30
0.0
 41
2.0
 42
2.0
 43
2.0
 50
180.0
  0
MTEXT
  5
733D
330
6FBA
100
AcDbEntity
  8
30
  6
CONTINUOUS
 62
     0
100
AcDbMText
 10
144.7704460049797
 20
-126.3986215185147
 30
0.0
 40
4.0
 41
0.0
 71
     5
 72
     1
  1
\A1;4
1001
ACAD
1000
MTEXTBEGIN
1070
    73
1070
     1
1070
    44
1040
1.0
1070
    74
1070
     0
1000
MTEXTEND
  0
POINT
  5
733E
330
6FBA
100
AcDbEntity
  8
DEFPOINTS
  6
CONTINUOUS
 62
     0
100
AcDbPoint
 10
134.4371126716464
 20
-22.48970744689652
 30
0.0
  0
POINT
  5
733F
330
6FBA
100
AcDbEntity
  8
DEFPOINTS
  6
CONTINUOUS
 62
     0
100
AcDbPoint
 10
138.4371126716464
 20
-129.3986215185148
 30
0.0
  0
POINT
  5
7340
330
6FBA
100
AcDbEntity
  8
DEFPOINTS
  6
CONTINUOUS
 62
     0
100
AcDbPoint
 10
138.4371126716464
 20
-129.3986215185148
 30
0.0
  0
ENDBLK
  5
6FC6
330
6FBA
100
AcDbEntity
  8
0
100
AcDbBlockEnd
  0
BLOCK
  5
6FDC
330
6FD2
100
AcDbEntity
  8
0
100
AcDbBlockBegin
  2
*D21
 70
     1
 10
0.0
 20
0.0
 30
0.0
  3
*D21
  1

  0
LINE
  5
6FD3
330
6FD2
100
AcDbEntity
  8
30
  6
CONTINUOUS
 62
     0
100
AcDbLine
 10
245.4371126716464
 20
-119.6634516797933
 30
0.0
 11
245.4371126716464
 21
-141.3967505611178
 31
0.0
  0
LINE
  5
6FD4
330
6FD2
100
AcDbEntity
  8
30
  6
CONTINUOUS
 62
     0
100
AcDbLine
 10
118.4371126716464
 20
-0.9897074468965419
 30
0.0
 11
118.4371126716464
 21
-141.3967505611178
 31
0.0
  0
LINE
  5
6FD5
330
6FD2
100
AcDbEntity
  8
30
  6
CONTINUOUS
 62
     0
100
AcDbLine
 10
243.4371126716464
 20
-140.8967505611178
 30
0.0
 11
120.4371126716464
 21
-140.8967505611178
 31
0.0
  0
INSERT
  5
6FD6
330
6FD2
100
AcDbEntity
  8
30
  6
CONTINUOUS
 62
     0
100
AcDbBlockReference
  2
_OPEN
 10
245.4371126716464
 20
-140.8967505611178
 30
0.0
 41
2.0
 42
2.0
 43
2.0
  0
INSERT
  5
6FD7
330
6FD2
100
AcDbEntity
  8
30
  6
CONTINUOUS
 62
     0
100
AcDbBlockReference
  2
_OPEN
 10
118.4371126716464
 20
-140.8967505611178
 30
0.0
 41
2.0
 42
2.0
 43
2.0
 50
180.0
  0
MTEXT
  5
6FD8
330
6FD2
100
AcDbEntity
  8
30
  6
CONTINUOUS
 62
     0
100
AcDbMText
 10
181.9371126716464
 20
-137.8967505611178
 30
0.0
 40
4.0
 41
0.0
 71
     5
 72
     1
  1
\A1;127
1001
ACAD
1000
MTEXTBEGIN
1070
    73
1070
     1
1070
    44
1040
1.0
1070
    74
1070
     0
1000
MTEXTEND
1000
MTEXTBEGIN
1070
    73
1070
     1
1070
    44
1040
1.0
1070
    74
1070
     0
1000
MTEXTEND
1000
MTEXTBEGIN
1070
    73
1070
     1
1070
    44
1040
1.0
1070
    74
1070
     0
1000
MTEXTEND
  0
POINT
  5
6FD9
330
6FD2
100
AcDbEntity
  8
DEFPOINTS
  6
CONTINUOUS
 62
     0
100
AcDbPoint
 10
245.4371126716464
 20
-118.6634516797933
 30
0.0
  0
POINT
  5
6FDA
330
6FD2
100
AcDbEntity
  8
DEFPOINTS
  6
CONTINUOUS
 62
     0
100
AcDbPoint
 10
118.4371126716464
 20
0.0102925531034581
 30
0.0
  0
POINT
  5
6FDB
330
6FD2
100
AcDbEntity
  8
DEFPOINTS
  6
CONTINUOUS
 62
     0
100
AcDbPoint
 10
118.4371126716464
 20
-140.8967505611178
 30
0.0
  0
ENDBLK
  5
6FDD
330
6FD2
100
AcDbEntity
  8
0
100
AcDbBlockEnd
  0
BLOCK
  5
713F
330
7135
100
AcDbEntity
  8
0
100
AcDbBlockBegin
  2
*D22
 70
     1
 10
0.0
 20
0.0
 30
0.0
  3
*D22
  1

  0
LINE
  5
7136
330
7135
100
AcDbEntity
  8
30
  6
CONTINUOUS
 62
     0
100
AcDbLine
 10
-17.88009453517117
 20
-193.5
 30
0.0
 11
-17.8800945351712
 21
-344.1940094967603
 31
0.0
  0
LINE
  5
7137
330
7135
100
AcDbEntity
  8
30
  6
CONTINUOUS
 62
     0
100
AcDbLine
 10
17.11990546482881
 20
-319.5
 30
0.0
 11
17.11990546482881
 21
-344.1940094967603
 31
0.0
  0
LINE
  5
7138
330
7135
100
AcDbEntity
  8
30
  6
CONTINUOUS
 62
     0
100
AcDbLine
 10
-15.8800945351712
 20
-343.6940094967603
 30
0.0
 11
15.11990546482881
 21
-343.6940094967603
 31
0.0
  0
INSERT
  5
7139
330
7135
100
AcDbEntity
  8
30
  6
CONTINUOUS
 62
     0
100
AcDbBlockReference
  2
_OPEN
 10
-17.8800945351712
 20
-343.6940094967603
 30
0.0
 41
2.0
 42
2.0
 43
2.0
 50
180.0
  0
INSERT
  5
713A
330
7135
100
AcDbEntity
  8
30
  6
CONTINUOUS
 62
     0
100
AcDbBlockReference
  2
_OPEN
 10
17.11990546482881
 20
-343.6940094967603
 30
0.0
 41
2.0
 42
2.0
 43
2.0
  0
MTEXT
  5
713B
330
7135
100
AcDbEntity
  8
30
  6
CONTINUOUS
 62
     0
100
AcDbMText
 10
-0.380094535171194
 20
-340.6940094967603
 30
0.0
 40
4.0
 41
0.0
 71
     5
 72
     1
  1
\A1;35
1001
ACAD
1000
MTEXTBEGIN
1070
    73
1070
     1
1070
    44
1040
1.0
1070
    74
1070
     0
1000
MTEXTEND
1000
MTEXTBEGIN
1070
    73
1070
     1
1070
    44
1040
1.0
1070
    74
1070
     0
1000
MTEXTEND
1000
MTEXTBEGIN
1070
    73
1070
     1
1070
    44
1040
1.0
1070
    74
1070
     0
1000
MTEXTEND
  0
POINT
  5
713C
330
7135
100
AcDbEntity
  8
DEFPOINTS
  6
CONTINUOUS
 62
     0
100
AcDbPoint
 10
-17.88009453517117
 20
-192.5
 30
0.0
  0
POINT
  5
713D
330
7135
100
AcDbEntity
  8
DEFPOINTS
  6
CONTINUOUS
 62
     0
100
AcDbPoint
 10
17.11990546482881
 20
-318.5
 30
0.0
  0
POINT
  5
713E
330
7135
100
AcDbEntity
  8
DEFPOINTS
  6
CONTINUOUS
 62
     0
100
AcDbPoint
 10
17.11990546482881
 20
-343.6940094967603
 30
0.0
  0
ENDBLK
  5
7140
330
7135
100
AcDbEntity
  8
0
100
AcDbBlockEnd
  0
BLOCK
  5
7226
330
721C
100
AcDbEntity
  8
0
100
AcDbBlockBegin
  2
*D23
 70
     1
 10
0.0
 20
0.0
 30
0.0
  3
*D23
  1

  0
LINE
  5
732E
330
721C
100
AcDbEntity
  8
30
  6
CONTINUOUS
 62
     0
100
AcDbLine
 10
-11.0
 20
-23.5
 30
0.0
 11
-11.0
 21
-34.93596143916396
 31
0.0
  0
LINE
  5
732F
330
721C
100
AcDbEntity
  8
30
  6
CONTINUOUS
 62
     0
100
AcDbLine
 10
11.0
 20
-23.5
 30
0.0
 11
11.0
 21
-34.93596143916396
 31
0.0
  0
LINE
  5
7330
330
721C
100
AcDbEntity
  8
30
  6
CONTINUOUS
 62
     0
100
AcDbLine
 10
-9.0
 20
-34.43596143916396
 30
0.0
 11
9.0
 21
-34.43596143916396
 31
0.0
  0
INSERT
  5
7331
330
721C
100
AcDbEntity
  8
30
  6
CONTINUOUS
 62
     0
100
AcDbBlockReference
  2
_OPEN
 10
-11.0
 20
-34.43596143916396
 30
0.0
 41
2.0
 42
2.0
 43
2.0
 50
180.0
  0
INSERT
  5
7332
330
721C
100
AcDbEntity
  8
30
  6
CONTINUOUS
 62
     0
100
AcDbBlockReference
  2
_OPEN
 10
11.0
 20
-34.43596143916396
 30
0.0
 41
2.0
 42
2.0
 43
2.0
  0
MTEXT
  5
7333
330
721C
100
AcDbEntity
  8
30
  6
CONTINUOUS
 62
     0
100
AcDbMText
 10
0.0000000000000002
 20
-31.43596143916396
 30
0.0
 40
4.0
 41
0.0
 71
     5
 72
     1
  1
\A1;22
1001
ACAD
1000
MTEXTBEGIN
1070
    73
1070
     1
1070
    44
1040
1.0
1070
    74
1070
     0
1000
MTEXTEND
  0
POINT
  5
7334
330
721C
100
AcDbEntity
  8
DEFPOINTS
  6
CONTINUOUS
 62
     0
100
AcDbPoint
 10
-11.0
 20
-22.5
 30
0.0
  0
POINT
  5
7335
330
721C
100
AcDbEntity
  8
DEFPOINTS
  6
CONTINUOUS
 62
     0
100
AcDbPoint
 10
11.0
 20
-22.5
 30
0.0
  0
POINT
  5
7336
330
721C
100
AcDbEntity
  8
DEFPOINTS
  6
CONTINUOUS
 62
     0
100
AcDbPoint
 10
11.0
 20
-34.43596143916396
 30
0.0
  0
ENDBLK
  5
7227
330
721C
100
AcDbEntity
  8
0
100
AcDbBlockEnd
  0
BLOCK
  5
7233
330
7229
100
AcDbEntity
  8
0
100
AcDbBlockBegin
  2
*D24
 70
     1
 10
0.0
 20
0.0
 30
0.0
  3
*D24
  1

  0
LINE
  5
722A
330
7229
100
AcDbEntity
  8
30
  6
CONTINUOUS
 62
     0
100
AcDbLine
 10
-49.00000000000003
 20
26.0
 30
0.0
 11
-49.00000000000003
 21
36.40138211865564
 31
0.0
  0
LINE
  5
722B
330
7229
100
AcDbEntity
  8
30
  6
CONTINUOUS
 62
     0
100
AcDbLine
 10
49.0
 20
26.0
 30
0.0
 11
49.0
 21
36.40138211865564
 31
0.0
  0
LINE
  5
722C
330
7229
100
AcDbEntity
  8
30
  6
CONTINUOUS
 62
     0
100
AcDbLine
 10
-47.00000000000001
 20
35.90138211865564
 30
0.0
 11
47.0
 21
35.90138211865564
 31
0.0
  0
INSERT
  5
722D
330
7229
100
AcDbEntity
  8
30
  6
CONTINUOUS
 62
     0
100
AcDbBlockReference
  2
_OPEN
 10
-49.00000000000003
 20
35.90138211865564
 30
0.0
 41
2.0
 42
2.0
 43
2.0
 50
180.0
  0
INSERT
  5
722E
330
7229
100
AcDbEntity
  8
30
  6
CONTINUOUS
 62
     0
100
AcDbBlockReference
  2
_OPEN
 10
49.0
 20
35.90138211865564
 30
0.0
 41
2.0
 42
2.0
 43
2.0
  0
MTEXT
  5
722F
330
7229
100
AcDbEntity
  8
30
  6
CONTINUOUS
 62
     0
100
AcDbMText
 10
-0.000000000000014
 20
38.90138211865565
 30
0.0
 40
4.0
 41
0.0
 71
     5
 72
     1
  1
\A1;98
1001
ACAD
1000
MTEXTBEGIN
1070
    73
1070
     1
1070
    44
1040
1.0
1070
    74
1070
     0
1000
MTEXTEND
1000
MTEXTBEGIN
1070
    73
1070
     1
1070
    44
1040
1.0
1070
    74
1070
     0
1000
MTEXTEND
1000
MTEXTBEGIN
1070
    73
1070
     1
1070
    44
1040
1.0
1070
    74
1070
     0
1000
MTEXTEND
  0
POINT
  5
7230
330
7229
100
AcDbEntity
  8
DEFPOINTS
  6
CONTINUOUS
 62
     0
100
AcDbPoint
 10
-49.00000000000003
 20
25.0
 30
0.0
  0
POINT
  5
7231
330
7229
100
AcDbEntity
  8
DEFPOINTS
  6
CONTINUOUS
 62
     0
100
AcDbPoint
 10
49.0
 20
25.0
 30
0.0
  0
POINT
  5
7232
330
7229
100
AcDbEntity
  8
DEFPOINTS
  6
CONTINUOUS
 62
     0
100
AcDbPoint
 10
49.0
 20
35.90138211865564
 30
0.0
  0
ENDBLK
  5
7234
330
7229
100
AcDbEntity
  8
0
100
AcDbBlockEnd
  0
BLOCK
  5
7240
330
7236
100
AcDbEntity
  8
0
100
AcDbBlockBegin
  2
*D25
 70
     1
 10
0.0
 20
0.0
 30
0.0
  3
*D25
  1

  0
LINE
  5
7237
330
7236
100
AcDbEntity
  8
30
  6
CONTINUOUS
 62
     0
100
AcDbLine
 10
-48.50000000000003
 20
-110.0
 30
0.0
 11
-48.50000000000003
 21
-125.0376297822263
 31
0.0
  0
LINE
  5
7238
330
7236
100
AcDbEntity
  8
30
  6
CONTINUOUS
 62
     0
100
AcDbLine
 10
-0.0000000000000001
 20
-108.0
 30
0.0
 11
-0.0000000000000011
 21
-125.0376297822263
 31
0.0
  0
LINE
  5
7239
330
7236
100
AcDbEntity
  8
30
  6
CONTINUOUS
 62
     0
100
AcDbLine
 10
-46.50000000000003
 20
-124.5376297822262
 30
0.0
 11
-2.0
 21
-124.5376297822262
 31
0.0
  0
INSERT
  5
723A
330
7236
100
AcDbEntity
  8
30
  6
CONTINUOUS
 62
     0
100
AcDbBlockReference
  2
_OPEN
 10
-48.50000000000003
 20
-124.5376297822262
 30
0.0
 41
2.0
 42
2.0
 43
2.0
 50
180.0
  0
INSERT
  5
723B
330
7236
100
AcDbEntity
  8
30
  6
CONTINUOUS
 62
     0
100
AcDbBlockReference
  2
_OPEN
 10
-0.0000000000000011
 20
-124.5376297822262
 30
0.0
 41
2.0
 42
2.0
 43
2.0
  0
MTEXT
  5
723C
330
7236
100
AcDbEntity
  8
30
  6
CONTINUOUS
 62
     0
100
AcDbMText
 10
-24.25000000000001
 20
-121.5376297822261
 30
0.0
 40
4.0
 41
0.0
 71
     5
 72
     1
  1
\A1;48.5
1001
ACAD
1000
MTEXTBEGIN
1070
    73
1070
     1
1070
    44
1040
1.0
1070
    74
1070
     0
1000
MTEXTEND
1000
MTEXTBEGIN
1070
    73
1070
     1
1070
    44
1040
1.0
1070
    74
1070
     0
1000
MTEXTEND
1000
MTEXTBEGIN
1070
    73
1070
     1
1070
    44
1040
1.0
1070
    74
1070
     0
1000
MTEXTEND
  0
POINT
  5
723D
330
7236
100
AcDbEntity
  8
DEFPOINTS
  6
CONTINUOUS
 62
     0
100
AcDbPoint
 10
-48.50000000000003
 20
-109.0
 30
0.0
  0
POINT
  5
723E
330
7236
100
AcDbEntity
  8
DEFPOINTS
  6
CONTINUOUS
 62
     0
100
AcDbPoint
 10
0.0
 20
-107.0
 30
0.0
  0
POINT
  5
723F
330
7236
100
AcDbEntity
  8
DEFPOINTS
  6
CONTINUOUS
 62
     0
100
AcDbPoint
 10
-0.0000000000000011
 20
-124.5376297822262
 30
0.0
  0
ENDBLK
  5
7241
330
7236
100
AcDbEntity
  8
0
100
AcDbBlockEnd
  0
BLOCK
  5
724D
330
7243
100
AcDbEntity
  8
0
100
AcDbBlockBegin
  2
*D26
 70
     1
 10
0.0
 20
0.0
 30
0.0
  3
*D26
  1

  0
LINE
  5
7244
330
7243
100
AcDbEntity
  8
30
  6
CONTINUOUS
 62
     0
100
AcDbLine
 10
-0.0000000000000001
 20
-114.0
 30
0.0
 11
-0.0000000000000008
 21
-125.5376297822262
 31
0.0
  0
LINE
  5
7245
330
7243
100
AcDbEntity
  8
30
  6
CONTINUOUS
 62
     0
100
AcDbLine
 10
48.5
 20
-108.0
 30
0.0
 11
48.5
 21
-125.5376297822262
 31
0.0
  0
LINE
  5
7246
330
7243
100
AcDbEntity
  8
30
  6
CONTINUOUS
 62
     0
100
AcDbLine
 10
1.999999999999999
 20
-125.0376297822263
 30
0.0
 11
46.5
 21
-125.0376297822263
 31
0.0
  0
INSERT
  5
7247
330
7243
100
AcDbEntity
  8
30
  6
CONTINUOUS
 62
     0
100
AcDbBlockReference
  2
_OPEN
 10
-0.0000000000000007
 20
-125.0376297822263
 30
0.0
 41
2.0
 42
2.0
 43
2.0
 50
180.0
  0
INSERT
  5
7248
330
7243
100
AcDbEntity
  8
30
  6
CONTINUOUS
 62
     0
100
AcDbBlockReference
  2
_OPEN
 10
48.5
 20
-125.0376297822263
 30
0.0
 41
2.0
 42
2.0
 43
2.0
  0
MTEXT
  5
7249
330
7243
100
AcDbEntity
  8
30
  6
CONTINUOUS
 62
     0
100
AcDbMText
 10
24.25
 20
-122.0376297822262
 30
0.0
 40
4.0
 41
0.0
 71
     5
 72
     1
  1
\A1;48.5
1001
ACAD
1000
MTEXTBEGIN
1070
    73
1070
     1
1070
    44
1040
1.0
1070
    74
1070
     0
1000
MTEXTEND
1000
MTEXTBEGIN
1070
    73
1070
     1
1070
    44
1040
1.0
1070
    74
1070
     0
1000
MTEXTEND
1000
MTEXTBEGIN
1070
    73
1070
     1
1070
    44
1040
1.0
1070
    74
1070
     0
1000
MTEXTEND
  0
POINT
  5
724A
330
7243
100
AcDbEntity
  8
DEFPOINTS
  6
CONTINUOUS
 62
     0
100
AcDbPoint
 10
0.0
 20
-113.0
 30
0.0
  0
POINT
  5
724B
330
7243
100
AcDbEntity
  8
DEFPOINTS
  6
CONTINUOUS
 62
     0
100
AcDbPoint
 10
48.5
 20
-107.0
 30
0.0
  0
POINT
  5
724C
330
7243
100
AcDbEntity
  8
DEFPOINTS
  6
CONTINUOUS
 62
     0
100
AcDbPoint
 10
48.5
 20
-125.0376297822263
 30
0.0
  0
ENDBLK
  5
724E
330
7243
100
AcDbEntity
  8
0
100
AcDbBlockEnd
  0
BLOCK
  5
725A
330
7250
100
AcDbEntity
  8
0
100
AcDbBlockBegin
  2
*D27
 70
     1
 10
0.0
 20
0.0
 30
0.0
  3
*D27
  1

  0
LINE
  5
7286
330
7250
100
AcDbEntity
  8
30
  6
CONTINUOUS
 62
     0
100
AcDbLine
 10
-52.50000000000003
 20
-83.49999999999999
 30
0.0
 11
-52.50000000000003
 21
-132.5216144129897
 31
0.0
  0
LINE
  5
7287
330
7250
100
AcDbEntity
  8
30
  6
CONTINUOUS
 62
     0
100
AcDbLine
 10
52.5
 20
-83.49999999999999
 30
0.0
 11
52.5
 21
-132.5216144129897
 31
0.0
  0
LINE
  5
7288
330
7250
100
AcDbEntity
  8
30
  6
CONTINUOUS
 62
     0
100
AcDbLine
 10
-50.50000000000003
 20
-132.0216144129897
 30
0.0
 11
50.49999999999998
 21
-132.0216144129897
 31
0.0
  0
INSERT
  5
7289
330
7250
100
AcDbEntity
  8
30
  6
CONTINUOUS
 62
     0
100
AcDbBlockReference
  2
_OPEN
 10
-52.50000000000003
 20
-132.0216144129897
 30
0.0
 41
2.0
 42
2.0
 43
2.0
 50
180.0
  0
INSERT
  5
728A
330
7250
100
AcDbEntity
  8
30
  6
CONTINUOUS
 62
     0
100
AcDbBlockReference
  2
_OPEN
 10
52.5
 20
-132.0216144129897
 30
0.0
 41
2.0
 42
2.0
 43
2.0
  0
MTEXT
  5
728B
330
7250
100
AcDbEntity
  8
30
  6
CONTINUOUS
 62
     0
100
AcDbMText
 10
0.2634083267403186
 20
-129.0216144129897
 30
0.0
 40
4.0
 41
0.0
 71
     5
 72
     1
  1
\A1;105
1001
ACAD
1000
MTEXTBEGIN
1070
    73
1070
     1
1070
    44
1040
1.0
1070
    74
1070
     0
1000
MTEXTEND
1000
MTEXTBEGIN
1070
    73
1070
     1
1070
    44
1040
1.0
1070
    74
1070
     0
1000
MTEXTEND
1000
MTEXTBEGIN
1070
    73
1070
     1
1070
    44
1040
1.0
1070
    74
1070
     0
1000
MTEXTEND
  0
POINT
  5
728C
330
7250
100
AcDbEntity
  8
DEFPOINTS
  6
CONTINUOUS
 62
     0
100
AcDbPoint
 10
-52.50000000000003
 20
-82.5
 30
0.0
  0
POINT
  5
728D
330
7250
100
AcDbEntity
  8
DEFPOINTS
  6
CONTINUOUS
 62
     0
100
AcDbPoint
 10
52.5
 20
-82.5
 30
0.0
  0
POINT
  5
728E
330
7250
100
AcDbEntity
  8
DEFPOINTS
  6
CONTINUOUS
 62
     0
100
AcDbPoint
 10
52.5
 20
-132.0216144129897
 30
0.0
  0
ENDBLK
  5
725B
330
7250
100
AcDbEntity
  8
0
100
AcDbBlockEnd
  0
BLOCK
  5
729A
330
7290
100
AcDbEntity
  8
0
100
AcDbBlockBegin
  2
*D28
 70
     1
 10
0.0
 20
0.0
 30
0.0
  3
*D28
  1

  0
LINE
  5
7291
330
7290
100
AcDbEntity
  8
30
  6
CONTINUOUS
 62
     0
100
AcDbLine
 10
-60.00000000000003
 20
-114.0
 30
0.0
 11
-60.00000000000003
 21
-142.1548064381345
 31
0.0
  0
LINE
  5
7292
330
7290
100
AcDbEntity
  8
30
  6
CONTINUOUS
 62
     0
100
AcDbLine
 10
60.0
 20
-114.0
 30
0.0
 11
60.0
 21
-142.1548064381345
 31
0.0
  0
LINE
  5
7293
330
7290
100
AcDbEntity
  8
30
  6
CONTINUOUS
 62
     0
100
AcDbLine
 10
-58.00000000000003
 20
-141.6548064381347
 30
0.0
 11
57.99999999999998
 21
-141.6548064381347
 31
0.0
  0
INSERT
  5
7294
330
7290
100
AcDbEntity
  8
30
  6
CONTINUOUS
 62
     0
100
AcDbBlockReference
  2
_OPEN
 10
-60.00000000000003
 20
-141.6548064381347
 30
0.0
 41
2.0
 42
2.0
 43
2.0
 50
180.0
  0
INSERT
  5
7295
330
7290
100
AcDbEntity
  8
30
  6
CONTINUOUS
 62
     0
100
AcDbBlockReference
  2
_OPEN
 10
60.0
 20
-141.6548064381347
 30
0.0
 41
2.0
 42
2.0
 43
2.0
  0
MTEXT
  5
7296
330
7290
100
AcDbEntity
  8
30
  6
CONTINUOUS
 62
     0
100
AcDbMText
 10
-0.0000000000000211
 20
-138.6548064381347
 30
0.0
 40
4.0
 41
0.0
 71
     5
 72
     1
  1
\A1;120
1001
ACAD
1000
MTEXTBEGIN
1070
    73
1070
     1
1070
    44
1040
1.0
1070
    74
1070
     0
1000
MTEXTEND
1000
MTEXTBEGIN
1070
    73
1070
     1
1070
    44
1040
1.0
1070
    74
1070
     0
1000
MTEXTEND
1000
MTEXTBEGIN
1070
    73
1070
     1
1070
    44
1040
1.0
1070
    74
1070
     0
1000
MTEXTEND
  0
POINT
  5
7297
330
7290
100
AcDbEntity
  8
DEFPOINTS
  6
CONTINUOUS
 62
     0
100
AcDbPoint
 10
-60.00000000000003
 20
-113.0
 30
0.0
  0
POINT
  5
7298
330
7290
100
AcDbEntity
  8
DEFPOINTS
  6
CONTINUOUS
 62
     0
100
AcDbPoint
 10
60.0
 20
-113.0
 30
0.0
  0
POINT
  5
7299
330
7290
100
AcDbEntity
  8
DEFPOINTS
  6
CONTINUOUS
 62
     0
100
AcDbPoint
 10
60.0
 20
-141.6548064381347
 30
0.0
  0
ENDBLK
  5
729B
330
7290
100
AcDbEntity
  8
0
100
AcDbBlockEnd
  0
ENDSEC
  0
SECTION
  2
ENTITIES
  0
LINE
  5
B4
330
1E
100
AcDbEntity
  8
16
100
AcDbLine
 10
0.0
 20
-133.2888408455455
 30
0.0
 11
0.0
 21
127.7392682680622
 31
0.0
  0
LINE
  5
B5
330
1E
100
AcDbEntity
  8
16
100
AcDbLine
 10
71.77465564206305
 20
-0.0000000000000018
 30
0.0
 11
-83.90588178115756
 21
-0.0000000000000018
 31
0.0
  0
MTEXT
  5
BF3
330
1E
100
AcDbEntity
  8
24
  6
CONTINUOUS
100
AcDbMText
 10
140.9820964648284
 20
176.3476821548369
 30
0.0
 40
3.0
 41
0.0
 71
     1
 72
     1
  1
\A1;
1001
ACAD
1000
MTEXTBEGIN
1070
    73
1070
     1
1070
    44
1040
1.0
1070
    74
1070
     0
1000
MTEXTEND
1000
MTEXTBEGIN
1070
    73
1070
     1
1070
    44
1040
1.0
1070
    74
1070
     0
1000
MTEXTEND
1000
MTEXTBEGIN
1070
    73
1070
     1
1070
    44
1040
1.0
1070
    74
1070
     0
1000
MTEXTEND
  0
LINE
  5
1C9A
330
1E
100
AcDbEntity
  8
16
100
AcDbLine
 10
0.000000000000004
 20
185.6887571888092
 30
0.0
 11
0.000000000000004
 21
280.2384784421551
 31
0.0
  0
LINE
  5
1C9B
330
1E
100
AcDbEntity
  8
16
100
AcDbLine
 10
252.2605240987882
 20
0.0102925531034544
 30
0.0
 11
120.0952764866181
 21
0.0102925531034544
 31
0.0
  0
LINE
  5
2260
330
1E
100
AcDbEntity
  8
16
100
AcDbLine
 10
87.32666213088251
 20
-250.0
 30
0.0
 11
-80.93000773675209
 21
-250.0
 31
0.0
  0
LINE
  5
2261
330
1E
100
AcDbEntity
  8
16
100
AcDbLine
 10
-0.3800945351711884
 20
-350.4150635072006
 30
0.0
 11
-0.3800945351711884
 21
-151.2797245348689
 31
0.0
  0
MTEXT
  5
5C78
330
1E
100
AcDbEntity
  8
30
  6
CONTINUOUS
100
AcDbMText
 10
162.3297648581359
 20
88.99793930010117
 30
0.0
 40
4.0
 41
0.0
 71
     9
 72
     1
  1

1001
ACAD
1000
MTEXTBEGIN
1070
    73
1070
     1
1070
    44
1040
1.0
1070
    74
1070
     0
1000
MTEXTEND
1000
MTEXTBEGIN
1070
    73
1070
     1
1070
    44
1040
1.0
1070
    74
1070
     0
1000
MTEXTEND
1000
MTEXTBEGIN
1070
    73
1070
     1
1070
    44
1040
1.0
1070
    74
1070
     0
1000
MTEXTEND
  0
MTEXT
  5
6068
330
1E
100
AcDbEntity
  8
30
  6
CONTINUOUS
100
AcDbMText
 10
-34.12327828532269
 20
-164.9086974155603
 30
0.0
 40
4.0
 41
0.0
 71
     9
 72
     1
  1

1001
ACAD
1000
MTEXTBEGIN
1070
    73
1070
     1
1070
    44
1040
1.0
1070
    74
1070
     0
1000
MTEXTEND
1000
MTEXTBEGIN
1070
    73
1070
     1
1070
    44
1040
1.0
1070
    74
1070
     0
1000
MTEXTEND
1000
MTEXTBEGIN
1070
    73
1070
     1
1070
    44
1040
1.0
1070
    74
1070
     0
1000
MTEXTEND
  0
LINE
  5
6466
330
1E
100
AcDbEntity
  8
16
100
AcDbLine
 10
209.6199054648288
 20
-350.4150635072006
 30
0.0
 11
209.6199054648288
 21
-151.2797245348689
 31
0.0
  0
LINE
  5
646E
330
1E
100
AcDbEntity
  8
16
100
AcDbLine
 10
297.3266621308825
 20
-250.0
 30
0.0
 11
129.0699922632479
 21
-250.0
 31
0.0
  0
LINE
  5
6A6A
330
1E
100
AcDbEntity
  8
18
100
AcDbLine
 10
19.0
 20
182.5
 30
0.0
 11
19.0
 21
82.49999999999992
 31
0.0
  0
LINE
  5
6A6B
330
1E
100
AcDbEntity
  8
18
100
AcDbLine
 10
16.0
 20
182.5
 30
0.0
 11
16.0
 21
82.49999999999992
 31
0.0
  0
LINE
  5
6A6C
330
1E
100
AcDbEntity
  8
18
100
AcDbLine
 10
-19.0
 20
182.5
 30
0.0
 11
-19.0
 21
82.49999999999992
 31
0.0
  0
LINE
  5
6A6D
330
1E
100
AcDbEntity
  8
18
100
AcDbLine
 10
-16.0
 20
182.5
 30
0.0
 11
-16.0
 21
82.49999999999992
 31
0.0
  0
LINE
  5
6B16
330
1E
100
AcDbEntity
  8
18
100
AcDbLine
 10
-16.0
 20
182.5
 30
0.0
 11
-19.0
 21
182.5
 31
0.0
  0
LINE
  5
6B17
330
1E
100
AcDbEntity
  8
18
100
AcDbLine
 10
16.0
 20
182.5
 30
0.0
 11
19.0
 21
182.5
 31
0.0
  0
LINE
  5
6B40
330
1E
100
AcDbEntity
  8
10
  6
CONTINUOUS
100
AcDbLine
 10
142.4371126716464
 20
51.01029255310345
 30
0.0
 11
142.4371126716464
 21
-50.98970744689655
 31
0.0
  0
LINE
  5
6B41
330
1E
100
AcDbEntity
  8
10
  6
CONTINUOUS
100
AcDbLine
 10
245.4371126716464
 20
82.51029255310346
 30
0.0
 11
245.4371126716464
 21
-82.48970744689655
 31
0.0
  0
LINE
  5
6B42
330
1E
100
AcDbEntity
  8
12
  6
DASHED
100
AcDbLine
 10
165.4371126716464
 20
-65.23970744689655
 30
0.0
 11
245.4371126716464
 21
-65.23970744689655
 31
0.0
  0
LINE
  5
6B43
330
1E
100
AcDbEntity
  8
12
  6
DASHED
100
AcDbLine
 10
165.4371126716464
 20
-60.73970744689654
 30
0.0
 11
245.4371126716464
 21
-60.73970744689654
 31
0.0
  0
LINE
  5
6B44
330
1E
100
AcDbEntity
  8
12
  6
DASHED
100
AcDbLine
 10
144.4371126716464
 20
-62.98970744689654
 30
0.0
 11
263.4371126716463
 21
-62.98970744689654
 31
0.0
  0
LINE
  5
6B46
330
1E
100
AcDbEntity
  8
10
  6
CONTINUOUS
100
AcDbLine
 10
149.4371126716464
 20
-82.48970744689655
 30
0.0
 11
245.4371126716464
 21
-82.48970744689655
 31
0.0
  0
LINE
  5
6B47
330
1E
100
AcDbEntity
  8
10
  6
CONTINUOUS
100
AcDbLine
 10
149.4371126716464
 20
-50.98970744689655
 30
0.0
 11
149.4371126716464
 21
-82.48970744689655
 31
0.0
  0
LINE
  5
6B48
330
1E
100
AcDbEntity
  8
10
  6
CONTINUOUS
100
AcDbLine
 10
182.4371126716464
 20
-112.9897074468964
 30
0.0
 11
182.4371126716464
 21
-82.48970744689655
 31
0.0
  0
LINE
  5
6B49
330
1E
100
AcDbEntity
  8
10
  6
CONTINUOUS
100
AcDbLine
 10
186.4371126716464
 20
-112.9897074468964
 30
0.0
 11
186.4371126716464
 21
-82.48970744689655
 31
0.0
  0
LINE
  5
6B4A
330
1E
100
AcDbEntity
  8
10
  6
CONTINUOUS
100
AcDbLine
 10
182.4371126716464
 20
-112.9897074468964
 30
0.0
 11
186.4371126716464
 21
-112.9897074468964
 31
0.0
  0
LINE
  5
6B4B
330
1E
100
AcDbEntity
  8
10
  6
CONTINUOUS
100
AcDbLine
 10
134.4371126716464
 20
14.17572939253349
 30
0.0
 11
125.8833174901573
 21
20.16516125891405
 31
0.0
  0
LINE
  5
6B4C
330
1E
100
AcDbEntity
  8
10
  6
CONTINUOUS
100
AcDbLine
 10
134.4371126716464
 20
6.851081859964748
 30
0.0
 11
122.4418588720509
 21
15.25024899318007
 31
0.0
  0
ARC
  5
6B4D
330
1E
100
AcDbEntity
  8
30
  6
CONTINUOUS
100
AcDbCircle
 10
149.4371126716464
 20
0.0102925531034544
 30
0.0
 40
31.0
100
AcDbArc
 50
150.5534441956585
 51
180.0
  0
LINE
  5
6B4E
330
1E
100
AcDbEntity
  8
10
  6
CONTINUOUS
100
AcDbLine
 10
122.4418588720509
 20
15.25024899318007
 30
0.0
 11
125.8833174901573
 21
20.16516125891405
 31
0.0
  0
LINE
  5
6B4F
330
1E
100
AcDbEntity
  8
10
  6
CONTINUOUS
100
AcDbLine
 10
138.4371126716464
 20
22.51029255310344
 30
0.0
 11
138.4371126716464
 21
-22.48970744689652
 31
0.0
  0
LINE
  5
6B50
330
1E
100
AcDbEntity
  8
10
  6
CONTINUOUS
100
AcDbLine
 10
134.4371126716464
 20
22.51029255310344
 30
0.0
 11
134.4371126716464
 21
-22.48970744689652
 31
0.0
  0
LINE
  5
6B51
330
1E
100
AcDbEntity
  8
12
  6
DASHED
100
AcDbLine
 10
149.4371126716458
 20
-67.23970744689655
 30
0.0
 11
165.4371126716464
 21
-67.23970744689655
 31
0.0
  0
LINE
  5
6B52
330
1E
100
AcDbEntity
  8
12
  6
DASHED
100
AcDbLine
 10
149.4371126716458
 20
-58.73970744689654
 30
0.0
 11
165.4371126716464
 21
-58.73970744689654
 31
0.0
  0
LINE
  5
6B53
330
1E
100
AcDbEntity
  8
10
  6
CONTINUOUS
100
AcDbLine
 10
142.4371126716464
 20
-50.98970744689655
 30
0.0
 11
149.4371126716464
 21
-50.98970744689655
 31
0.0
  0
LINE
  5
6B54
330
1E
100
AcDbEntity
  8
12
  6
DASHED
100
AcDbLine
 10
165.4371126716464
 20
-58.73970744689654
 30
0.0
 11
165.4371126716464
 21
-67.23970744689655
 31
0.0
  0
LINE
  5
6B55
330
1E
100
AcDbEntity
  8
12
  6
DASHED
100
AcDbLine
 10
159.4371126716464
 20
-58.73970744689654
 30
0.0
 11
159.4371126716464
 21
-67.23970744689655
 31
0.0
  0
LINE
  5
6B56
330
1E
100
AcDbEntity
  8
12
  6
DASHED
100
AcDbLine
 10
165.4371126716464
 20
-65.23970744689655
 30
0.0
 11
165.4371126716464
 21
-67.23970744689655
 31
0.0
  0
LINE
  5
6B57
330
1E
100
AcDbEntity
  8
12
  6
DASHED
100
AcDbLine
 10
165.4371126716464
 20
-58.73970744689654
 30
0.0
 11
165.4371126716464
 21
-60.73970744689654
 31
0.0
  0
LINE
  5
6B58
330
1E
100
AcDbEntity
  8
10
  6
CONTINUOUS
100
AcDbLine
 10
134.4371126716464
 20
-22.48970744689652
 30
0.0
 11
142.4371126716464
 21
-22.48970744689652
 31
0.0
  0
LINE
  5
6B59
330
1E
100
AcDbEntity
  8
10
  6
CONTINUOUS
100
AcDbLine
 10
134.4371126716464
 20
22.51029255310344
 30
0.0
 11
142.4371126716464
 21
22.51029255310344
 31
0.0
  0
LINE
  5
6B5A
330
1E
100
AcDbEntity
  8
12
  6
DASHED
100
AcDbLine
 10
253.4371126716464
 20
-60.73970744689654
 30
0.0
 11
253.4371126716464
 21
-65.23970744689655
 31
0.0
  0
LINE
  5
6B5B
330
1E
100
AcDbEntity
  8
12
  6
DASHED
100
AcDbLine
 10
245.4371126716464
 20
-65.23970744689655
 30
0.0
 11
253.4371126716464
 21
-65.23970744689655
 31
0.0
  0
LINE
  5
6B5C
330
1E
100
AcDbEntity
  8
12
  6
DASHED
100
AcDbLine
 10
245.4371126716464
 20
-60.73970744689654
 30
0.0
 11
253.4371126716464
 21
-60.73970744689654
 31
0.0
  0
LINE
  5
6B5D
330
1E
100
AcDbEntity
  8
10
  6
CONTINUOUS
100
AcDbLine
 10
245.4371126716464
 20
82.51029255310346
 30
0.0
 11
149.4371126716464
 21
82.51029255310346
 31
0.0
  0
LINE
  5
6B5E
330
1E
100
AcDbEntity
  8
10
  6
CONTINUOUS
100
AcDbLine
 10
149.4371126716464
 20
82.51029255310346
 30
0.0
 11
149.4371126716464
 21
51.01029255310345
 31
0.0
  0
LINE
  5
6B5F
330
1E
100
AcDbEntity
  8
10
  6
CONTINUOUS
100
AcDbLine
 10
142.4371126716464
 20
51.01029255310345
 30
0.0
 11
149.4371126716464
 21
51.01029255310345
 31
0.0
  0
LINE
  5
6B60
330
1E
100
AcDbEntity
  8
10
  6
CONTINUOUS
100
AcDbLine
 10
186.4371126716464
 20
113.0102925531035
 30
0.0
 11
186.4371126716464
 21
82.51029255310346
 31
0.0
  0
LINE
  5
6B61
330
1E
100
AcDbEntity
  8
10
  6
CONTINUOUS
100
AcDbLine
 10
182.4371126716464
 20
113.0102925531035
 30
0.0
 11
182.4371126716464
 21
82.51029255310346
 31
0.0
  0
LINE
  5
6B62
330
1E
100
AcDbEntity
  8
10
  6
CONTINUOUS
100
AcDbLine
 10
182.4371126716464
 20
113.0102925531034
 30
0.0
 11
186.4371126716464
 21
113.0102925531034
 31
0.0
  0
LINE
  5
6B79
330
1E
100
AcDbEntity
  8
18
  6
DIVIDE
100
AcDbLine
 10
157.1199054648284
 20
-332.5
 30
0.0
 11
262.1199054648286
 21
-332.5
 31
0.0
  0
LINE
  5
6B7A
330
1E
100
AcDbEntity
  8
18
  6
DIVIDE
100
AcDbLine
 10
262.1199054648286
 20
-167.5
 30
0.0
 11
157.1199054648284
 21
-167.5
 31
0.0
  0
ARC
  5
6B7B
330
1E
100
AcDbEntity
  8
11
 48
2.0
100
AcDbCircle
 10
157.1199054648288
 20
-272.5
 30
0.0
 40
1.0
100
AcDbArc
 50
180.0
 51
270.0
  0
ARC
  5
6B7C
330
1E
100
AcDbEntity
  8
11
 48
2.0
100
AcDbCircle
 10
157.1199054648288
 20
-227.4999999999999
 30
0.0
 40
1.0
100
AcDbArc
 50
90.0
 51
180.0
  0
LINE
  5
6B7D
330
1E
100
AcDbEntity
  8
18
  6
DIVIDE
100
AcDbLine
 10
157.1199054648288
 20
-167.5
 30
0.0
 11
157.1199054648288
 21
-332.5
 31
0.0
  0
LINE
  5
6B7E
330
1E
100
AcDbEntity
  8
11
 48
2.0
100
AcDbLine
 10
156.1199054648288
 20
-227.4999999999999
 30
0.0
 11
156.1199054648288
 21
-272.5
 31
0.0
  0
ARC
  5
6B82
330
1E
100
AcDbEntity
  8
11
 48
2.0
100
AcDbCircle
 10
262.1199054648286
 20
-272.5
 30
0.0
 40
1.0
100
AcDbArc
 50
270.0
 51
0.0
  0
LINE
  5
6B83
330
1E
100
AcDbEntity
  8
11
 48
2.0
100
AcDbLine
 10
157.1199054648288
 20
-273.4999999999999
 30
0.0
 11
262.1199054648286
 21
-273.4999999999999
 31
0.0
  0
LINE
  5
6B84
330
1E
100
AcDbEntity
  8
11
 48
2.0
100
AcDbLine
 10
157.1199054648288
 20
-226.5
 30
0.0
 11
262.1199054648286
 21
-226.5
 31
0.0
  0
LINE
  5
6B85
330
1E
100
AcDbEntity
  8
11
 48
2.0
100
AcDbLine
 10
263.1199054648285
 20
-227.4999999999999
 30
0.0
 11
263.1199054648285
 21
-272.5
 31
0.0
  0
ARC
  5
6B86
330
1E
100
AcDbEntity
  8
11
 48
2.0
100
AcDbCircle
 10
262.1199054648286
 20
-227.4999999999999
 30
0.0
 40
1.0
100
AcDbArc
 50
0.0
 51
90.0
  0
LINE
  5
6B9F
330
1E
100
AcDbEntity
  8
18
  6
DIVIDE
100
AcDbLine
 10
-52.88009453517117
 20
-167.5
 30
0.0
 11
-52.88009453517117
 21
-332.5
 31
0.0
  0
LINE
  5
6BA1
330
1E
100
AcDbEntity
  8
18
  6
DIVIDE
100
AcDbLine
 10
-52.88009453517117
 20
-332.5
 30
0.0
 11
52.1199054648288
 21
-332.5
 31
0.0
  0
LINE
  5
6BA2
330
1E
100
AcDbEntity
  8
12
  6
CONTINUOUS
 62
     3
100
AcDbLine
 10
11.61990546482881
 20
-313.0
 30
0.0
 11
22.61990546482881
 21
-313.0
 31
0.0
  0
CIRCLE
  5
6BA3
330
1E
100
AcDbEntity
  8
12
  6
CONTINUOUS
 62
     3
100
AcDbCircle
 10
17.11990546482881
 20
-313.0
 30
0.0
 40
2.0
  0
LINE
  5
6BA7
330
1E
100
AcDbEntity
  8
12
  6
CONTINUOUS
 62
     3
100
AcDbLine
 10
17.11990546482881
 20
-318.5
 30
0.0
 11
17.11990546482881
 21
-307.5
 31
0.0
  0
LINE
  5
6BA8
330
1E
100
AcDbEntity
  8
18
  6
DIVIDE
100
AcDbLine
 10
52.1199054648288
 20
-167.5
 30
0.0
 11
-52.88009453517117
 21
-167.5
 31
0.0
  0
LINE
  5
6BAB
330
1E
100
AcDbEntity
  8
12
  6
CONTINUOUS
 62
     3
100
AcDbLine
 10
-17.88009453517117
 20
-181.4999999999999
 30
0.0
 11
-17.88009453517117
 21
-192.5
 31
0.0
  0
LINE
  5
6BAC
330
1E
100
AcDbEntity
  8
12
  6
CONTINUOUS
 62
     3
100
AcDbLine
 10
-23.38009453517118
 20
-187.0
 30
0.0
 11
-12.38009453517117
 21
-187.0
 31
0.0
  0
CIRCLE
  5
6BAD
330
1E
100
AcDbEntity
  8
12
  6
CONTINUOUS
 62
     3
100
AcDbCircle
 10
-17.88009453517117
 20
-187.0
 30
0.0
 40
2.0
  0
LINE
  5
6BCD
330
1E
100
AcDbEntity
  8
10
  6
CONTINOUS
100
AcDbLine
 10
-52.49999999999997
 20
326.8165692823121
 30
0.0
 11
52.5
 21
326.8165692823121
 31
0.0
  0
LINE
  5
6BD1
330
1E
100
AcDbEntity
  8
10
  6
CONTINOUS
100
AcDbLine
 10
-52.49999999999998
 20
223.8165692823121
 30
0.0
 11
52.5
 21
223.8165692823121
 31
0.0
  0
LINE
  5
6BD2
330
1E
100
AcDbEntity
  8
10
  6
CONTINOUS
100
AcDbLine
 10
-11.01790353517128
 20
215.8933368984127
 30
0.0
 11
10.99999999999997
 21
215.8933368984127
 31
0.0
  0
LINE
  5
6BD3
330
1E
100
AcDbEntity
  8
10
  6
CONTINOUS
100
AcDbLine
 10
-11.01790353517128
 20
215.816569282312
 30
0.0
 11
10.99999999999997
 21
215.816569282312
 31
0.0
  0
LINE
  5
6BD5
330
1E
100
AcDbEntity
  8
10
  6
CONTINOUS
100
AcDbLine
 10
-52.49999999999998
 20
223.8165692823121
 30
0.0
 11
-52.49999999999997
 21
326.8165692823121
 31
0.0
  0
LINE
  5
6BD7
330
1E
100
AcDbEntity
  8
10
  6
CONTINOUS
100
AcDbLine
 10
-11.01790353517128
 20
215.816569282312
 30
0.0
 11
-11.01790353517128
 21
223.8165692823121
 31
0.0
  0
DIMENSION
  5
6BE4
330
1E
100
AcDbEntity
  8
30
  6
CONTINUOUS
100
AcDbDimension
  2
*D1
 10
35.0
 20
309.7406209576415
 30
0.0
 11
17.5
 21
312.7406209576415
 31
0.0
 70
    32
  3
STANDARD
100
AcDbAlignedDimension
 13
0.0
 23
269.8933368984127
 33
0.0
 14
35.0
 24
272.8165692823121
 34
0.0
100
AcDbRotatedDimension
1001
ACAD
1000
DSTYLE
1002
{
1070
    79
1070
     3
1002
}
  0
LINE
  5
6BEB
330
1E
100
AcDbEntity
  8
10
  6
CONTINOUS
100
AcDbLine
 10
-52.49999999999997
 20
230.8165692823123
 30
0.0
 11
52.5
 21
230.8165692823122
 31
0.0
  0
LWPOLYLINE
  5
6BEF
330
1E
100
AcDbEntity
  8
10
  6
CONTINOUS
100
AcDbPolyline
 90
        4
 70
     1
 43
0.0
 10
-7.0
 20
215.816569282312
 10
7.0
 20
215.816569282312
 10
7.0
 20
203.8213154827163
 10
-7.0
 20
203.8213154827163
  0
LINE
  5
6BF0
330
1E
100
AcDbEntity
  8
10
  6
CONTINOUS
100
AcDbLine
 10
10.99999999999997
 20
215.816569282312
 30
0.0
 11
11.0
 21
223.8165692823121
 31
0.0
  0
LINE
  5
6C09
330
1E
100
AcDbEntity
  8
10
  6
CONTINOUS
100
AcDbLine
 10
52.5
 20
223.8165692823121
 30
0.0
 11
52.5
 21
326.8165692823121
 31
0.0
  0
LWPOLYLINE
  5
6CEA
330
1E
100
AcDbEntity
  8
10
  6
CONTINOUS
100
AcDbPolyline
 90
        4
 70
     1
 43
0.0
 10
-11.49999999999997
 20
267.8165692823121
 10
11.50000000000005
 20
267.8165692823121
 10
11.50000000000005
 20
263.8165692823121
 10
-11.49999999999997
 20
263.8165692823121
  0
LINE
  5
6CEB
330
1E
100
AcDbEntity
  8
24
  6
CONTINOUS
100
AcDbLine
 10
-5.0
 20
256.6165692823119
 30
0.0
 11
5.0
 21
256.6165692823119
 31
0.0
  0
LINE
  5
6CEC
330
1E
100
AcDbEntity
  8
24
  6
CONTINOUS
100
AcDbLine
 10
-10.5
 20
267.8165692823121
 30
0.0
 11
10.5000000000001
 21
267.8165692823121
 31
0.0
  0
LINE
  5
6CED
330
1E
100
AcDbEntity
  8
24
  6
CONTINOUS
100
AcDbLine
 10
-7.699999999999931
 20
261.8165692823121
 30
0.0
 11
7.700000000000045
 21
261.8165692823121
 31
0.0
  0
LINE
  5
6CEE
330
1E
100
AcDbEntity
  8
24
  6
CONTINOUS
100
AcDbLine
 10
-10.5
 20
269.8165692823121
 30
0.0
 11
10.5000000000001
 21
269.8165692823121
 31
0.0
  0
LINE
  5
6CEF
330
1E
100
AcDbEntity
  8
24
  6
CONTINOUS
100
AcDbLine
 10
0.0
 20
255.6165692823118
 30
0.0
 11
0.0
 21
272.8165692823121
 31
0.0
  0
LINE
  5
6CF0
330
1E
100
AcDbEntity
  8
24
  6
CONTINOUS
100
AcDbLine
 10
-7.0
 20
258.6165692823119
 30
0.0
 11
-7.0
 21
261.8165692823121
 31
0.0
  0
ARC
  5
6CF1
330
1E
100
AcDbEntity
  8
24
  6
CONTINOUS
100
AcDbCircle
 10
-5.0
 20
258.6165692823119
 30
0.0
 40
2.0
100
AcDbArc
 50
180.0
 51
270.0
  0
LINE
  5
6CF2
330
1E
100
AcDbEntity
  8
24
  6
CONTINUOUS
100
AcDbLine
 10
-10.5
 20
269.8165692823121
 30
0.0
 11
-10.5
 21
267.8165692823121
 31
0.0
  0
LINE
  5
6CF3
330
1E
100
AcDbEntity
  8
24
  6
CONTINOUS
100
AcDbLine
 10
-7.699999999999931
 20
261.8165692823121
 30
0.0
 11
-7.699999999999931
 21
263.8165692823121
 31
0.0
  0
LINE
  5
6CF4
330
1E
100
AcDbEntity
  8
24
  6
CONTINOUS
100
AcDbLine
 10
7.0
 20
258.6165692823119
 30
0.0
 11
7.0
 21
261.8165692823121
 31
0.0
  0
ARC
  5
6CF5
330
1E
100
AcDbEntity
  8
24
  6
CONTINOUS
100
AcDbCircle
 10
5.0
 20
258.6165692823119
 30
0.0
 40
2.0
100
AcDbArc
 50
270.0
 51
0.0
  0
LINE
  5
6CF6
330
1E
100
AcDbEntity
  8
24
  6
CONTINUOUS
100
AcDbLine
 10
10.5000000000001
 20
269.8165692823121
 30
0.0
 11
10.5000000000001
 21
267.8165692823121
 31
0.0
  0
LINE
  5
6CF7
330
1E
100
AcDbEntity
  8
24
  6
CONTINOUS
100
AcDbLine
 10
7.700000000000045
 20
261.8165692823121
 30
0.0
 11
7.700000000000045
 21
263.8165692823121
 31
0.0
  0
LWPOLYLINE
  5
6D33
330
1E
100
AcDbEntity
  8
10
  6
CONTINOUS
100
AcDbPolyline
 90
        4
 70
     1
 43
0.0
 10
23.5
 20
267.8165692823121
 10
60.0
 20
267.8165692823121
 10
60.0
 20
263.8165692823121
 10
23.5
 20
263.8165692823121
  0
LINE
  5
6D34
330
1E
100
AcDbEntity
  8
24
  6
CONTINOUS
100
AcDbLine
 10
30.0
 20
256.6165692823119
 30
0.0
 11
40.0
 21
256.6165692823119
 31
0.0
  0
LINE
  5
6D35
330
1E
100
AcDbEntity
  8
24
  6
CONTINOUS
100
AcDbLine
 10
24.5
 20
267.8165692823121
 30
0.0
 11
45.5000000000001
 21
267.8165692823121
 31
0.0
  0
LINE
  5
6D36
330
1E
100
AcDbEntity
  8
24
  6
CONTINOUS
100
AcDbLine
 10
27.30000000000007
 20
261.8165692823121
 30
0.0
 11
42.70000000000004
 21
261.8165692823121
 31
0.0
  0
LINE
  5
6D37
330
1E
100
AcDbEntity
  8
24
  6
CONTINOUS
100
AcDbLine
 10
24.5
 20
269.8165692823121
 30
0.0
 11
45.5000000000001
 21
269.8165692823121
 31
0.0
  0
LINE
  5
6D38
330
1E
100
AcDbEntity
  8
24
  6
CONTINOUS
100
AcDbLine
 10
35.0
 20
255.6165692823118
 30
0.0
 11
35.0
 21
272.8165692823121
 31
0.0
  0
ARC
  5
6D39
330
1E
100
AcDbEntity
  8
24
  6
CONTINOUS
100
AcDbCircle
 10
30.0
 20
258.6165692823119
 30
0.0
 40
2.0
100
AcDbArc
 50
180.0
 51
270.0
  0
LINE
  5
6D3A
330
1E
100
AcDbEntity
  8
24
  6
CONTINOUS
100
AcDbLine
 10
27.30000000000007
 20
261.8165692823121
 30
0.0
 11
27.30000000000007
 21
263.8165692823121
 31
0.0
  0
LINE
  5
6D3B
330
1E
100
AcDbEntity
  8
24
  6
CONTINOUS
100
AcDbLine
 10
28.0
 20
258.6165692823119
 30
0.0
 11
28.0
 21
261.8165692823121
 31
0.0
  0
LINE
  5
6D3C
330
1E
100
AcDbEntity
  8
24
  6
CONTINUOUS
100
AcDbLine
 10
24.5
 20
269.8165692823121
 30
0.0
 11
24.5
 21
267.8165692823121
 31
0.0
  0
LINE
  5
6D3D
330
1E
100
AcDbEntity
  8
24
  6
CONTINOUS
100
AcDbLine
 10
42.0
 20
258.6165692823119
 30
0.0
 11
42.0
 21
261.8165692823121
 31
0.0
  0
ARC
  5
6D3E
330
1E
100
AcDbEntity
  8
24
  6
CONTINOUS
100
AcDbCircle
 10
40.0
 20
258.6165692823119
 30
0.0
 40
2.0
100
AcDbArc
 50
270.0
 51
0.0
  0
LINE
  5
6D3F
330
1E
100
AcDbEntity
  8
24
  6
CONTINOUS
100
AcDbLine
 10
42.70000000000004
 20
261.8165692823121
 30
0.0
 11
42.70000000000004
 21
263.8165692823121
 31
0.0
  0
LINE
  5
6D40
330
1E
100
AcDbEntity
  8
24
  6
CONTINUOUS
100
AcDbLine
 10
45.5000000000001
 20
269.8165692823121
 30
0.0
 11
45.5000000000001
 21
267.8165692823121
 31
0.0
  0
LWPOLYLINE
  5
6D6E
330
1E
100
AcDbEntity
  8
10
  6
CONTINOUS
100
AcDbPolyline
 90
        4
 70
     1
 43
0.0
 10
-60.00000000000003
 20
267.8165692823121
 10
-23.49999999999994
 20
267.8165692823121
 10
-23.49999999999994
 20
263.8165692823121
 10
-60.00000000000003
 20
263.8165692823121
  0
LINE
  5
6D6F
330
1E
100
AcDbEntity
  8
24
  6
CONTINOUS
100
AcDbLine
 10
-40.0
 20
256.6165692823119
 30
0.0
 11
-30.0
 21
256.6165692823119
 31
0.0
  0
LINE
  5
6D70
330
1E
100
AcDbEntity
  8
24
  6
CONTINOUS
100
AcDbLine
 10
-45.49999999999999
 20
267.8165692823121
 30
0.0
 11
-24.4999999999999
 21
267.8165692823121
 31
0.0
  0
LINE
  5
6D71
330
1E
100
AcDbEntity
  8
24
  6
CONTINOUS
100
AcDbLine
 10
-42.69999999999993
 20
261.8165692823121
 30
0.0
 11
-27.29999999999995
 21
261.8165692823121
 31
0.0
  0
LINE
  5
6D72
330
1E
100
AcDbEntity
  8
24
  6
CONTINOUS
100
AcDbLine
 10
-45.49999999999999
 20
269.8165692823121
 30
0.0
 11
-24.4999999999999
 21
269.8165692823121
 31
0.0
  0
LINE
  5
6D73
330
1E
100
AcDbEntity
  8
24
  6
CONTINOUS
100
AcDbLine
 10
-35.0
 20
255.6165692823118
 30
0.0
 11
-35.0
 21
272.8165692823121
 31
0.0
  0
ARC
  5
6D74
330
1E
100
AcDbEntity
  8
24
  6
CONTINOUS
100
AcDbCircle
 10
-40.0
 20
258.6165692823119
 30
0.0
 40
2.0
100
AcDbArc
 50
180.0
 51
270.0
  0
LINE
  5
6D75
330
1E
100
AcDbEntity
  8
24
  6
CONTINOUS
100
AcDbLine
 10
-42.69999999999993
 20
261.8165692823121
 30
0.0
 11
-42.69999999999993
 21
263.8165692823121
 31
0.0
  0
LINE
  5
6D76
330
1E
100
AcDbEntity
  8
24
  6
CONTINOUS
100
AcDbLine
 10
-42.0
 20
258.6165692823119
 30
0.0
 11
-42.0
 21
261.8165692823121
 31
0.0
  0
LINE
  5
6D77
330
1E
100
AcDbEntity
  8
24
  6
CONTINUOUS
100
AcDbLine
 10
-45.49999999999999
 20
269.8165692823121
 30
0.0
 11
-45.49999999999999
 21
267.8165692823121
 31
0.0
  0
LINE
  5
6D78
330
1E
100
AcDbEntity
  8
24
  6
CONTINOUS
100
AcDbLine
 10
-28.0
 20
258.6165692823119
 30
0.0
 11
-28.0
 21
261.8165692823121
 31
0.0
  0
ARC
  5
6D79
330
1E
100
AcDbEntity
  8
24
  6
CONTINOUS
100
AcDbCircle
 10
-30.0
 20
258.6165692823119
 30
0.0
 40
2.0
100
AcDbArc
 50
270.0
 51
0.0
  0
LINE
  5
6D7A
330
1E
100
AcDbEntity
  8
24
  6
CONTINOUS
100
AcDbLine
 10
-27.29999999999995
 20
261.8165692823121
 30
0.0
 11
-27.29999999999995
 21
263.8165692823121
 31
0.0
  0
LINE
  5
6D7B
330
1E
100
AcDbEntity
  8
24
  6
CONTINUOUS
100
AcDbLine
 10
-24.4999999999999
 20
269.8165692823121
 30
0.0
 11
-24.4999999999999
 21
267.8165692823121
 31
0.0
  0
DIMENSION
  5
6D7C
330
1E
100
AcDbEntity
  8
30
  6
CONTINUOUS
100
AcDbDimension
  2
*D2
 10
0.0000000000000023
 20
309.7406209576415
 30
0.0
 11
-17.5
 21
312.7406209576415
 31
0.0
 70
    32
  3
STANDARD
100
AcDbAlignedDimension
 13
-35.0
 23
269.8933368984127
 33
0.0
 14
0.0
 24
272.8165692823121
 34
0.0
100
AcDbRotatedDimension
1001
ACAD
1000
DSTYLE
1002
{
1070
    79
1070
     3
1002
}
  0
DIMENSION
  5
6DAC
330
1E
100
AcDbEntity
  8
30
  6
CONTINUOUS
100
AcDbDimension
  2
*D3
 10
60.0
 20
125.7139219802485
 30
0.0
 11
48.5
 21
128.7139219802485
 31
0.0
 70
    32
  3
STANDARD
100
AcDbAlignedDimension
 13
37.0
 23
113.0
 33
0.0
 14
60.0
 24
113.0
 34
0.0
100
AcDbRotatedDimension
1001
ACAD
1000
DSTYLE
1002
{
1070
    79
1070
     3
1002
}
  0
DIMENSION
  5
6DB9
330
1E
100
AcDbEntity
  8
30
  6
CONTINUOUS
100
AcDbDimension
  2
*D4
 10
71.88107455351702
 20
113.0
 30
0.0
 11
68.88107455351698
 21
107.25
 31
0.0
 70
    32
  3
STANDARD
100
AcDbAlignedDimension
 13
56.0
 23
101.5
 33
0.0
 14
60.0
 24
113.0
 34
0.0
 50
90.0
100
AcDbRotatedDimension
1001
ACAD
1000
DSTYLE
1002
{
1070
    79
1070
     3
1002
}
  0
DIMENSION
  5
6DC6
330
1E
100
AcDbEntity
  8
30
  6
CONTINUOUS
100
AcDbDimension
  2
*D5
 10
79.22921446927784
 20
82.5
 30
0.0
 11
76.22921446927783
 21
97.75000000000002
 31
0.0
 70
    32
  3
STANDARD
100
AcDbAlignedDimension
 13
60.0
 23
113.0
 33
0.0
 14
66.0
 24
82.5
 34
0.0
 50
90.0
100
AcDbRotatedDimension
1001
ACAD
1000
DSTYLE
1002
{
1070
    79
1070
     3
1002
}
  0
DIMENSION
  5
6DD3
330
1E
100
AcDbEntity
  8
30
  6
CONTINUOUS
100
AcDbDimension
  2
*D6
 10
186.4371126716464
 20
122.32636103358
 30
0.0
 11
215.9371126716464
 21
125.3263610335799
 31
0.0
 70
    32
  3
STANDARD
100
AcDbAlignedDimension
 13
245.4371126716464
 23
82.51029255310346
 33
0.0
 14
186.4371126716464
 24
113.0102925531034
 34
0.0
100
AcDbRotatedDimension
1001
ACAD
1000
DSTYLE
1002
{
1070
    79
1070
     3
1002
}
  0
DIMENSION
  5
6DE0
330
1E
100
AcDbEntity
  8
30
  6
CONTINUOUS
100
AcDbDimension
  2
*D7
 10
182.4371126716464
 20
122.82636103358
 30
0.0
 11
176.1037793383131
 21
125.82636103358
 31
0.0
 70
    32
  3
STANDARD
100
AcDbAlignedDimension
 13
186.4371126716464
 23
113.0102925531034
 33
0.0
 14
182.4371126716464
 24
113.0102925531034
 34
0.0
100
AcDbRotatedDimension
1001
ACAD
1000
DSTYLE
1002
{
1070
    79
1070
     3
1002
}
  0
LEADER
  5
6E2F
330
1E
100
AcDbEntity
  8
30
  6
CONTINUOUS
100
AcDbLeader
  3
STANDARD
 76
     3
 10
-48.5
 20
101.4999999999999
 30
0.0
 10
-58.08157217077149
 20
117.3696490488322
 30
0.0
 10
-76.8319211509103
 20
117.3696490488322
 30
0.0
1001
ACAD
1000
DSTYLE
1002
{
1070
     5
1000
OPEN
1070
    77
1070
     0
1070
    79
1070
     3
1070
   147
1040
1.0
1070
   342
1005
3B2
1002
}
  0
TEXT
  5
6E30
330
1E
100
AcDbEntity
  8
30
  6
CONTINUOUS
100
AcDbText
 10
-75.87851447265411
 20
118.956840912156
 30
0.0
 40
5.0
  1
%%C11
  7
STANDARD1
100
AcDbText
  0
DIMENSION
  5
6E49
330
1E
100
AcDbEntity
  8
30
  6
CONTINUOUS
100
AcDbDimension
  2
*D8
 10
-85.46797204212541
 20
82.5
 30
0.0
 11
-88.4679720421254
 21
132.4999999999999
 31
0.0
 70
    32
  3
STANDARD
100
AcDbAlignedDimension
 13
-19.0
 23
182.5
 33
0.0
 14
-52.49999999999997
 24
82.5
 34
0.0
 50
90.0
100
AcDbRotatedDimension
1001
ACAD
1000
DSTYLE
1002
{
1070
    79
1070
     3
1002
}
  0
DIMENSION
  5
6E56
330
1E
100
AcDbEntity
  8
30
  6
CONTINUOUS
100
AcDbDimension
  2
*D9
 10
-85.46797204212543
 20
-82.5
 30
0.0
 11
-88.4679720421254
 21
-0.0000000000000086
 31
0.0
 70
    33
  3
STANDARD
100
AcDbAlignedDimension
 13
-52.49999999999997
 23
82.5
 33
0.0
 14
-52.49999999999997
 24
-82.5
 34
0.0
1001
ACAD
1000
DSTYLE
1002
{
1070
    79
1070
     3
1002
}
  0
LEADER
  5
6E63
330
1E
100
AcDbEntity
  8
30
  6
CONTINUOUS
100
AcDbLeader
  3
STANDARD
 76
     3
 10
-17.88009453517119
 20
-187.0
 30
0.0
 10
-27.02312241480981
 20
-163.3683716085349
 30
0.0
 10
-52.82975295031477
 20
-163.4003639250138
 30
0.0
213
-17.20647466499205
223
1.845209746191358
233
0.0
1001
ACAD
1000
DSTYLE
1002
{
1070
     5
1000
OPEN
1070
    77
1070
     0
1070
    79
1070
     3
1070
   147
1040
1.0
1070
   342
1005
3B2
1002
}
  0
MTEXT
  5
6E64
330
1E
100
AcDbEntity
  8
30
  6
CONTINUOUS
100
AcDbMText
 10
-40.40662176749465
 20
-160.3825644346581
 30
0.0
 40
4.0
 41
0.0
 71
     5
 72
     1
  1
M4×0.7
1001
ACAD
1000
MTEXTBEGIN
1070
    73
1070
     1
1070
    44
1040
1.0
1070
    74
1070
     0
1000
MTEXTEND
1000
MTEXTBEGIN
1070
    73
1070
     1
1070
    44
1040
1.0
1070
    74
1070
     0
1000
MTEXTEND
1000
MTEXTBEGIN
1070
    73
1070
     1
1070
    44
1040
1.0
1070
    74
1070
     0
1000
MTEXTEND
  0
DIMENSION
  5
6E65
330
1E
100
AcDbEntity
  8
30
  6
CONTINUOUS
100
AcDbDimension
  2
*D10
 10
78.57549392574355
 20
-313.0
 30
0.0
 11
75.57549392574363
 21
-250.0
 31
0.0
 70
    32
  3
STANDARD
100
AcDbAlignedDimension
 13
-12.38009453517117
 23
-187.0
 33
0.0
 14
22.61990546482881
 24
-313.0
 34
0.0
 50
90.0
100
AcDbRotatedDimension
1001
ACAD
1000
DSTYLE
1002
{
1070
    79
1070
     3
1002
}
  0
DIMENSION
  5
6E72
330
1E
100
AcDbEntity
  8
30
  6
CONTINUOUS
100
AcDbDimension
  2
*D11
 10
280.9029436113288
 20
-273.4999999999999
 30
0.0
 11
277.9029436113288
 21
-249.9999999999999
 31
0.0
 70
    32
  3
STANDARD
100
AcDbAlignedDimension
 13
262.1199054648286
 23
-226.5
 33
0.0
 14
263.3420532342502
 24
-273.4999999999999
 34
0.0
 50
90.0
100
AcDbRotatedDimension
1001
ACAD
1000
DSTYLE
1002
{
1070
    79
1070
     3
1002
}
  0
DIMENSION
  5
6E73
330
1E
100
AcDbEntity
  8
30
  6
CONTINUOUS
100
AcDbDimension
  2
*D12
 10
262.1199054648285
 20
-227.4999999999999
 30
0.0
 11
269.9162528600987
 21
-221.6811816163855
 31
0.0
 70
    36
  3
STANDARD
100
AcDbRadialDimension
 15
262.9458416105493
 25
-226.936236323277
 35
0.0
 40
0.0
1001
ACAD
1000
DSTYLE
1002
{
1070
   288
1070
     1
1002
}
  0
DIMENSION
  5
6ECF
330
1E
100
AcDbEntity
  8
30
  6
CONTINUOUS
100
AcDbDimension
  2
*D13
 10
263.1199054648285
 20
-359.3804450066013
 30
0.0
 11
209.6199054648287
 21
-356.3804450066013
 31
0.0
 70
    32
  3
STANDARD
100
AcDbAlignedDimension
 13
156.1199054648288
 23
-272.5
 33
0.0
 14
263.1199054648285
 24
-272.5
 34
0.0
100
AcDbRotatedDimension
1001
ACAD
1000
DSTYLE
1002
{
1070
    79
1070
     3
1002
}
  0
DIMENSION
  5
6F6B
330
1E
100
AcDbEntity
  8
30
  6
CONTINUOUS
100
AcDbDimension
  2
*D14
 10
111.4688600635149
 20
-22.48970744689652
 30
0.0
 11
108.4688600635149
 21
0.0102925531034799
 31
0.0
 70
    32
  3
STANDARD
100
AcDbAlignedDimension
 13
134.4371126716464
 23
22.51029255310344
 33
0.0
 14
134.4371126716464
 24
-22.48970744689652
 34
0.0
 50
90.0
100
AcDbRotatedDimension
1001
ACAD
1000
DSTYLE
1002
{
1070
    79
1070
     3
1002
}
  0
DIMENSION
  5
6F78
330
1E
100
AcDbEntity
  8
30
  6
CONTINUOUS
100
AcDbDimension
  2
*D15
 10
245.4371126716464
 20
-91.64127065798902
 30
0.0
 11
249.4371126716464
 21
-88.64127065798902
 31
0.0
 70
    32
  3
STANDARD
100
AcDbAlignedDimension
 13
253.4371126716464
 23
-65.23970744689655
 33
0.0
 14
245.4371126716464
 24
-82.48970744689655
 34
0.0
100
AcDbRotatedDimension
1001
ACAD
1000
DSTYLE
1002
{
1070
    79
1070
     3
1002
}
  0
DIMENSION
  5
6F85
330
1E
100
AcDbEntity
  8
30
  6
CONTINUOUS
100
AcDbDimension
  2
*D16
 10
165.4371126716464
 20
-91.64127065798902
 30
0.0
 11
205.4371126716464
 21
-88.64127065798902
 31
0.0
 70
    32
  3
STANDARD
100
AcDbAlignedDimension
 13
245.4371126716464
 23
-82.48970744689655
 33
0.0
 14
165.4371126716464
 24
-67.23970744689655
 34
0.0
100
AcDbRotatedDimension
1001
ACAD
1000
DSTYLE
1002
{
1070
   287
1070
     4
1070
   287
1070
     4
1070
   287
1070
     4
1070
   279
1070
     1
1070
    79
1070
     3
1002
}
  0
DIMENSION
  5
6F92
330
1E
100
AcDbEntity
  8
30
  6
CONTINUOUS
100
AcDbDimension
  2
*D17
 10
149.4371126716464
 20
-103.6393997005921
 30
0.0
 11
197.4371126716464
 21
-100.6393997005921
 31
0.0
 70
    32
  3
STANDARD
100
AcDbAlignedDimension
 13
245.4371126716464
 23
-82.48970744689655
 33
0.0
 14
149.4371126716464
 24
-82.48970744689655
 34
0.0
100
AcDbRotatedDimension
1001
ACAD
1000
DSTYLE
1002
{
1070
    79
1070
     3
1002
}
  0
DIMENSION
  5
6F9F
330
1E
100
AcDbEntity
  8
30
  6
CONTINUOUS
100
AcDbDimension
  2
*D18
 10
142.4371126716464
 20
-118.1634516797932
 30
0.0
 11
193.9371126716464
 21
-115.1634516797932
 31
0.0
 70
    32
  3
STANDARD
100
AcDbAlignedDimension
 13
245.4371126716464
 23
-82.48970744689655
 33
0.0
 14
142.4371126716464
 24
-50.98970744689655
 34
0.0
100
AcDbRotatedDimension
1001
ACAD
1000
DSTYLE
1002
{
1070
    79
1070
     3
1002
}
  0
DIMENSION
  5
6FAC
330
1E
100
AcDbEntity
  8
30
  6
CONTINUOUS
100
AcDbDimension
  2
*D19
 10
138.4371126716464
 20
-128.8986215185148
 30
0.0
 11
191.9371126716464
 21
-125.8986215185148
 31
0.0
 70
    32
  3
STANDARD
100
AcDbAlignedDimension
 13
245.4371126716464
 23
-82.48970744689655
 33
0.0
 14
138.4371126716464
 24
-22.48970744689652
 34
0.0
100
AcDbRotatedDimension
1001
ACAD
1000
DSTYLE
1002
{
1070
    79
1070
     3
1002
}
  0
DIMENSION
  5
6FB9
330
1E
100
AcDbEntity
  8
30
  6
CONTINUOUS
100
AcDbDimension
  2
*D20
 10
138.4371126716464
 20
-129.3986215185148
 30
0.0
 11
144.7704460049797
 21
-126.3986215185147
 31
0.0
 70
    32
  3
STANDARD
100
AcDbAlignedDimension
 13
134.4371126716464
 23
-22.48970744689652
 33
0.0
 14
138.4371126716464
 24
-129.3986215185148
 34
0.0
100
AcDbRotatedDimension
1001
ACAD
1000
DSTYLE
1002
{
1070
    79
1070
     3
1002
}
  0
DIMENSION
  5
6FD1
330
1E
100
AcDbEntity
  8
30
  6
CONTINUOUS
100
AcDbDimension
  2
*D21
 10
118.4371126716464
 20
-140.8967505611178
 30
0.0
 11
181.9371126716464
 21
-137.8967505611178
 31
0.0
 70
    32
  3
STANDARD
100
AcDbAlignedDimension
 13
245.4371126716464
 23
-118.6634516797933
 33
0.0
 14
118.4371126716464
 24
0.0102925531034581
 34
0.0
100
AcDbRotatedDimension
1001
ACAD
1000
DSTYLE
1002
{
1070
    79
1070
     3
1002
}
  0
LINE
  5
7067
330
1E
100
AcDbEntity
  8
10
  6
CONTINUOUS
100
AcDbLine
 10
-52.50000000000003
 20
82.5
 30
0.0
 11
-52.50000000000003
 21
-82.5
 31
0.0
  0
LINE
  5
7068
330
1E
100
AcDbEntity
  8
10
  6
CONTINUOUS
100
AcDbLine
 10
52.5
 20
-82.5
 30
0.0
 11
52.5
 21
82.5
 31
0.0
  0
ARC
  5
7069
330
1E
100
AcDbEntity
  8
10
  6
CONTINUOUS
100
AcDbCircle
 10
42.0
 20
-65.0
 30
0.0
 40
5.0
210
0.0
220
0.0
230
-1.0
100
AcDbArc
 50
0.0
 51
90.0
  0
LINE
  5
706A
330
1E
100
AcDbEntity
  8
24
  6
CONTINOUS
100
AcDbLine
 10
-56.00000000000003
 20
-101.5
 30
0.0
 11
-41.0
 21
-101.5
 31
0.0
  0
LINE
  5
706B
330
1E
100
AcDbEntity
  8
10
  6
CONTINUOUS
100
AcDbLine
 10
-60.00000000000003
 20
-113.0
 30
0.0
 11
-37.0
 21
-113.0
 31
0.0
  0
LINE
  5
706C
330
1E
100
AcDbEntity
  8
10
  6
CONTINUOUS
100
AcDbLine
 10
-52.50000000000003
 20
-22.5
 30
0.0
 11
52.5
 21
-22.5
 31
0.0
  0
LINE
  5
706D
330
1E
100
AcDbEntity
  8
10
  6
CONTINUOUS
100
AcDbLine
 10
-52.50000000000003
 20
22.5
 30
0.0
 11
52.5
 21
22.5
 31
0.0
  0
LINE
  5
706E
330
1E
100
AcDbEntity
  8
10
  6
CONTINUOUS
100
AcDbLine
 10
-52.50000000000003
 20
-51.0
 30
0.0
 11
52.5
 21
-51.0
 31
0.0
  0
CIRCLE
  5
7070
330
1E
100
AcDbEntity
  8
24
  6
CONTINOUS
100
AcDbCircle
 10
-48.50000000000003
 20
-101.5
 30
0.0
 40
5.5
  0
LINE
  5
7071
330
1E
100
AcDbEntity
  8
10
  6
CONTINUOUS
100
AcDbLine
 10
-46.5
 20
-89.99999999999996
 30
0.0
 11
-46.5
 21
-62.82055052822965
 31
0.0
  0
LINE
  5
7072
330
1E
100
AcDbEntity
  8
10
  6
CONTINUOUS
100
AcDbLine
 10
-47.0
 20
-82.5
 30
0.0
 11
-47.0
 21
-65.0
 31
0.0
  0
LINE
  5
7073
330
1E
100
AcDbEntity
  8
10
  6
CONTINUOUS
100
AcDbLine
 10
-48.50000000000003
 20
-109.0
 30
0.0
 11
-48.50000000000003
 21
-94.0
 31
0.0
  0
LINE
  5
7074
330
1E
100
AcDbEntity
  8
10
  6
CONTINUOUS
100
AcDbLine
 10
-60.00000000000003
 20
-113.0
 30
0.0
 11
-60.00000000000003
 21
-90.0
 31
0.0
  0
LINE
  5
7075
330
1E
100
AcDbEntity
  8
10
  6
CONTINUOUS
100
AcDbLine
 10
-60.00000000000003
 20
-90.0
 30
0.0
 11
-46.5
 21
-90.0
 31
0.0
  0
LINE
  5
7076
330
1E
100
AcDbEntity
  8
10
  6
CONTINUOUS
100
AcDbLine
 10
-52.50000000000003
 20
-82.5
 30
0.0
 11
-46.5
 21
-82.5
 31
0.0
  0
LINE
  5
7078
330
1E
100
AcDbEntity
  8
10
  6
CONTINUOUS
100
AcDbLine
 10
-23.5
 20
-83.49999999999999
 30
0.0
 11
-23.5
 21
-62.82055052822965
 31
0.0
  0
LINE
  5
7079
330
1E
100
AcDbEntity
  8
10
  6
CONTINUOUS
100
AcDbLine
 10
46.5
 20
-89.99999999999996
 30
0.0
 11
46.5
 21
-62.82055052822965
 31
0.0
  0
LINE
  5
707A
330
1E
100
AcDbEntity
  8
10
  6
CONTINUOUS
100
AcDbLine
 10
23.5
 20
-83.49999999999999
 30
0.0
 11
23.5
 21
-62.82055052822965
 31
0.0
  0
LINE
  5
707B
330
1E
100
AcDbEntity
  8
10
  6
CONTINUOUS
100
AcDbLine
 10
11.5
 20
-113.0
 30
0.0
 11
11.5
 21
-62.82055052822965
 31
0.0
  0
LINE
  5
707C
330
1E
100
AcDbEntity
  8
10
  6
CONTINUOUS
100
AcDbLine
 10
-11.5
 20
-113.0
 30
0.0
 11
-11.5
 21
-62.82055052822965
 31
0.0
  0
LINE
  5
707D
330
1E
100
AcDbEntity
  8
24
  6
CONTINOUS
100
AcDbLine
 10
35.0
 20
-78.0
 30
0.0
 11
35.0
 21
-65.99999999999996
 31
0.0
  0
LINE
  5
707E
330
1E
100
AcDbEntity
  8
24
  6
CONTINOUS
100
AcDbLine
 10
-35.0
 20
-78.0
 30
0.0
 11
-35.0
 21
-65.99999999999996
 31
0.0
  0
LINE
  5
707F
330
1E
100
AcDbEntity
  8
10
  6
CONTINUOUS
100
AcDbLine
 10
-23.0
 20
-82.5
 30
0.0
 11
-23.0
 21
-65.0
 31
0.0
  0
LINE
  5
7080
330
1E
100
AcDbEntity
  8
10
  6
CONTINUOUS
100
AcDbLine
 10
12.0
 20
-82.5
 30
0.0
 11
12.0
 21
-65.0
 31
0.0
  0
LINE
  5
7081
330
1E
100
AcDbEntity
  8
10
  6
CONTINUOUS
100
AcDbLine
 10
-12.0
 20
-82.5
 30
0.0
 11
-12.0
 21
-65.0
 31
0.0
  0
LINE
  5
7082
330
1E
100
AcDbEntity
  8
10
  6
CONTINUOUS
100
AcDbLine
 10
47.0
 20
-82.5
 30
0.0
 11
47.0
 21
-65.0
 31
0.0
  0
LINE
  5
7083
330
1E
100
AcDbEntity
  8
10
  6
CONTINUOUS
100
AcDbLine
 10
23.0
 20
-82.5
 30
0.0
 11
23.0
 21
-65.0
 31
0.0
  0
CIRCLE
  5
7084
330
1E
100
AcDbEntity
  8
24
  6
CONTINOUS
100
AcDbCircle
 10
-35.0
 20
-72.0
 30
0.0
 40
4.25
  0
CIRCLE
  5
7085
330
1E
100
AcDbEntity
  8
24
  6
CONTINOUS
100
AcDbCircle
 10
-35.0
 20
-72.0
 30
0.0
 40
4.25
210
0.0
220
0.0
230
-1.0
  0
CIRCLE
  5
7086
330
1E
100
AcDbEntity
  8
24
  6
CONTINOUS
100
AcDbCircle
 10
0.0
 20
-72.0
 30
0.0
 40
4.25
210
0.0
220
0.0
230
-1.0
  0
LINE
  5
7087
330
1E
100
AcDbEntity
  8
10
  6
CONTINUOUS
100
AcDbLine
 10
60.0
 20
-113.0
 30
0.0
 11
37.0
 21
-113.0
 31
0.0
  0
LINE
  5
7088
330
1E
100
AcDbEntity
  8
24
  6
CONTINOUS
100
AcDbLine
 10
-7.5
 20
-101.5
 30
0.0
 11
7.5
 21
-101.5
 31
0.0
  0
LINE
  5
7089
330
1E
100
AcDbEntity
  8
10
  6
CONTINUOUS
100
AcDbLine
 10
-11.5
 20
-113.0
 30
0.0
 11
11.5
 21
-113.0
 31
0.0
  0
CIRCLE
  5
708A
330
1E
100
AcDbEntity
  8
24
  6
CONTINOUS
100
AcDbCircle
 10
0.0
 20
-101.5
 30
0.0
 40
5.5
210
0.0
220
0.0
230
-1.0
  0
LINE
  5
708B
330
1E
100
AcDbEntity
  8
10
  6
CONTINUOUS
100
AcDbLine
 10
-37.0
 20
-113.0
 30
0.0
 11
-23.5
 21
-83.49999999999999
 31
0.0
  0
LINE
  5
708C
330
1E
100
AcDbEntity
  8
10
  6
CONTINUOUS
100
AcDbLine
 10
-23.5
 20
-82.5
 30
0.0
 11
-11.5
 21
-82.5
 31
0.0
  0
LINE
  5
708D
330
1E
100
AcDbEntity
  8
10
  6
CONTINUOUS
100
AcDbLine
 10
37.0
 20
-113.0
 30
0.0
 11
23.5
 21
-83.49999999999999
 31
0.0
  0
LINE
  5
708E
330
1E
100
AcDbEntity
  8
10
  6
CONTINUOUS
100
AcDbLine
 10
11.5
 20
-82.5
 30
0.0
 11
23.5
 21
-82.5
 31
0.0
  0
LINE
  5
708F
330
1E
100
AcDbEntity
  8
10
  6
CONTINUOUS
100
AcDbLine
 10
48.5
 20
-109.0
 30
0.0
 11
48.5
 21
-94.0
 31
0.0
  0
LINE
  5
7090
330
1E
100
AcDbEntity
  8
10
  6
CONTINUOUS
100
AcDbLine
 10
60.0
 20
-113.0
 30
0.0
 11
60.0
 21
-90.0
 31
0.0
  0
CIRCLE
  5
7091
330
1E
100
AcDbEntity
  8
24
  6
CONTINOUS
100
AcDbCircle
 10
-48.5
 20
-101.5
 30
0.0
 40
5.5
210
0.0
220
0.0
230
-1.0
  0
LINE
  5
7092
330
1E
100
AcDbEntity
  8
24
  6
CONTINOUS
100
AcDbLine
 10
41.0
 20
-101.5
 30
0.0
 11
55.99999999999997
 21
-101.5
 31
0.0
  0
LINE
  5
7093
330
1E
100
AcDbEntity
  8
10
  6
CONTINUOUS
100
AcDbLine
 10
60.0
 20
-90.0
 30
0.0
 11
46.5
 21
-90.0
 31
0.0
  0
LINE
  5
7094
330
1E
100
AcDbEntity
  8
10
  6
CONTINUOUS
100
AcDbLine
 10
46.49999999999994
 20
-82.5
 30
0.0
 11
52.5
 21
-82.5
 31
0.0
  0
LINE
  5
7095
330
1E
100
AcDbEntity
  8
24
  6
CONTINOUS
100
AcDbLine
 10
29.0
 20
-72.0
 30
0.0
 11
41.0
 21
-72.0
 31
0.0
  0
LINE
  5
7096
330
1E
100
AcDbEntity
  8
10
  6
CONTINUOUS
100
AcDbLine
 10
42.0
 20
-60.0
 30
0.0
 11
28.0
 21
-60.0
 31
0.0
  0
LINE
  5
7097
330
1E
100
AcDbEntity
  8
10
  6
CONTINUOUS
100
AcDbLine
 10
-11.0
 20
22.5
 30
0.0
 11
-11.0
 21
-22.5
 31
0.0
  0
LINE
  5
7098
330
1E
100
AcDbEntity
  8
10
  6
CONTINUOUS
100
AcDbLine
 10
11.0
 20
22.5
 30
0.0
 11
11.0
 21
-22.5
 31
0.0
  0
LINE
  5
7099
330
1E
100
AcDbEntity
  8
24
  6
CONTINOUS
100
AcDbLine
 10
-6.0
 20
-72.0
 30
0.0
 11
6.0
 21
-72.0
 31
0.0
  0
LINE
  5
709A
330
1E
100
AcDbEntity
  8
10
  6
CONTINUOUS
100
AcDbLine
 10
7.0
 20
-60.0
 30
0.0
 11
-7.0
 21
-60.0
 31
0.0
  0
ARC
  5
709B
330
1E
100
AcDbEntity
  8
10
  6
CONTINUOUS
100
AcDbCircle
 10
28.0
 20
-65.0
 30
0.0
 40
5.0
210
0.0
220
0.0
230
-1.0
100
AcDbArc
 50
90.0
 51
180.0
  0
LINE
  5
709C
330
1E
100
AcDbEntity
  8
24
  6
CONTINOUS
100
AcDbLine
 10
-41.0
 20
-72.0
 30
0.0
 11
-29.0
 21
-72.0
 31
0.0
  0
LINE
  5
709D
330
1E
100
AcDbEntity
  8
10
  6
CONTINUOUS
100
AcDbLine
 10
-28.0
 20
-60.0
 30
0.0
 11
-42.0
 21
-60.0
 31
0.0
  0
ARC
  5
709E
330
1E
100
AcDbEntity
  8
10
  6
CONTINUOUS
100
AcDbCircle
 10
7.0
 20
-65.0
 30
0.0
 40
5.0
210
0.0
220
0.0
230
-1.0
100
AcDbArc
 50
0.0
 51
90.0
  0
CIRCLE
  5
709F
330
1E
100
AcDbEntity
  8
12
  6
DASHED
100
AcDbCircle
 10
17.5
 20
-63.0
 30
0.0
 40
4.0
  0
LINE
  5
70A0
330
1E
100
AcDbEntity
  8
12
  6
DASHED
100
AcDbLine
 10
12.0
 20
-63.0
 30
0.0
 11
23.0
 21
-63.0
 31
0.0
  0
ARC
  5
70A1
330
1E
100
AcDbEntity
  8
10
  6
CONTINUOUS
100
AcDbCircle
 10
-7.0
 20
-65.0
 30
0.0
 40
5.0
210
0.0
220
0.0
230
-1.0
100
AcDbArc
 50
90.0
 51
180.0
  0
LINE
  5
70A2
330
1E
100
AcDbEntity
  8
12
  6
DASHED
100
AcDbLine
 10
17.5
 20
-57.5
 30
0.0
 11
17.5
 21
-68.5
 31
0.0
  0
ARC
  5
70A3
330
1E
100
AcDbEntity
  8
10
  6
CONTINUOUS
100
AcDbCircle
 10
-28.0
 20
-65.0
 30
0.0
 40
5.0
210
0.0
220
0.0
230
-1.0
100
AcDbArc
 50
0.0
 51
90.0
  0
LINE
  5
70A4
330
1E
100
AcDbEntity
  8
10
  6
CONTINUOUS
100
AcDbLine
 10
-7.0
 20
-18.5
 30
0.0
 11
7.0
 21
-18.5
 31
0.0
  0
LINE
  5
70A5
330
1E
100
AcDbEntity
  8
10
  6
CONTINUOUS
100
AcDbLine
 10
7.0
 20
6.840789306861521
 30
0.0
 11
-6.99999999999909
 21
6.84078930686158
 31
0.0
  0
LINE
  5
70A6
330
1E
100
AcDbEntity
  8
10
  6
CONTINUOUS
100
AcDbLine
 10
7.0
 20
20.15486870581028
 30
0.0
 11
-7.000000000000909
 21
20.15486870581022
 31
0.0
  0
LINE
  5
70A7
330
1E
100
AcDbEntity
  8
10
  6
CONTINUOUS
100
AcDbLine
 10
7.0
 20
15.23995644007664
 30
0.0
 11
-7.0
 21
15.23995644007664
 31
0.0
  0
LINE
  5
70A8
330
1E
100
AcDbEntity
  8
10
  6
CONTINUOUS
100
AcDbLine
 10
-7.0
 20
-18.5
 30
0.0
 11
-6.999999999999971
 21
20.15486870581022
 31
0.0
  0
LINE
  5
70A9
330
1E
100
AcDbEntity
  8
10
  6
CONTINUOUS
100
AcDbLine
 10
7.0
 20
-18.5
 30
0.0
 11
7.000000000000027
 21
20.15486870581028
 31
0.0
  0
ARC
  5
70AB
330
1E
100
AcDbEntity
  8
10
  6
CONTINUOUS
100
AcDbCircle
 10
-42.0
 20
-65.0
 30
0.0
 40
5.0
210
0.0
220
0.0
230
-1.0
100
AcDbArc
 50
90.0
 51
180.0
  0
ARC
  5
70AC
330
1E
100
AcDbEntity
  8
10
  6
CONTINUOUS
100
AcDbCircle
 10
-42.0
 20
65.0
 30
0.0
 40
5.0
100
AcDbArc
 50
180.0
 51
270.0
  0
LINE
  5
70AD
330
1E
100
AcDbEntity
  8
24
  6
CONTINOUS
100
AcDbLine
 10
-56.00000000000003
 20
101.5
 30
0.0
 11
-41.0
 21
101.5
 31
0.0
  0
LINE
  5
70AE
330
1E
100
AcDbEntity
  8
10
  6
CONTINUOUS
100
AcDbLine
 10
-60.00000000000003
 20
113.0
 30
0.0
 11
-37.0
 21
113.0
 31
0.0
  0
LINE
  5
70AF
330
1E
100
AcDbEntity
  8
10
  6
CONTINUOUS
100
AcDbLine
 10
-52.50000000000003
 20
51.0
 30
0.0
 11
52.5
 21
51.0
 31
0.0
  0
CIRCLE
  5
70B0
330
1E
100
AcDbEntity
  8
24
  6
CONTINOUS
100
AcDbCircle
 10
48.50000000000003
 20
101.5
 30
0.0
 40
5.5
210
0.0
220
0.0
230
-1.0
  0
LINE
  5
70B1
330
1E
100
AcDbEntity
  8
10
  6
CONTINUOUS
100
AcDbLine
 10
-46.5
 20
89.99999999999994
 30
0.0
 11
-46.5
 21
62.82055052822967
 31
0.0
  0
LINE
  5
70B2
330
1E
100
AcDbEntity
  8
10
  6
CONTINUOUS
100
AcDbLine
 10
-47.0
 20
82.5
 30
0.0
 11
-47.0
 21
65.0
 31
0.0
  0
LINE
  5
70B3
330
1E
100
AcDbEntity
  8
24
  6
CONTINOUS
100
AcDbLine
 10
-48.50000000000003
 20
109.0
 30
0.0
 11
-48.50000000000003
 21
94.0
 31
0.0
  0
LINE
  5
70B4
330
1E
100
AcDbEntity
  8
10
  6
CONTINUOUS
100
AcDbLine
 10
-60.00000000000003
 20
113.0
 30
0.0
 11
-60.00000000000003
 21
90.0
 31
0.0
  0
LINE
  5
70B5
330
1E
100
AcDbEntity
  8
10
  6
CONTINUOUS
100
AcDbLine
 10
-60.00000000000003
 20
90.0
 30
0.0
 11
-46.5
 21
90.0
 31
0.0
  0
LINE
  5
70B6
330
1E
100
AcDbEntity
  8
10
  6
CONTINUOUS
100
AcDbLine
 10
-46.5
 20
82.5
 30
0.0
 11
-52.50000000000003
 21
82.5
 31
0.0
  0
LINE
  5
70BB
330
1E
100
AcDbEntity
  8
24
  6
CONTINOUS
100
AcDbLine
 10
29.0
 20
72.0
 30
0.0
 11
41.0
 21
72.0
 31
0.0
  0
LINE
  5
70BC
330
1E
100
AcDbEntity
  8
10
  6
CONTINUOUS
100
AcDbLine
 10
60.0
 20
113.0
 30
0.0
 11
37.0
 21
113.0
 31
0.0
  0
LINE
  5
70BD
330
1E
100
AcDbEntity
  8
10
  6
CONTINUOUS
100
AcDbLine
 10
42.0
 20
60.0
 30
0.0
 11
28.0
 21
60.0
 31
0.0
  0
LINE
  5
70BE
330
1E
100
AcDbEntity
  8
10
  6
CONTINUOUS
100
AcDbLine
 10
-23.5
 20
83.49999999999999
 30
0.0
 11
-23.5
 21
62.82055052822967
 31
0.0
  0
LINE
  5
70BF
330
1E
100
AcDbEntity
  8
10
  6
CONTINUOUS
100
AcDbLine
 10
11.5
 20
113.0
 30
0.0
 11
11.5
 21
62.82055052822967
 31
0.0
  0
LINE
  5
70C0
330
1E
100
AcDbEntity
  8
10
  6
CONTINUOUS
100
AcDbLine
 10
-11.5
 20
113.0
 30
0.0
 11
-11.5
 21
62.82055052822967
 31
0.0
  0
LINE
  5
70C1
330
1E
100
AcDbEntity
  8
10
  6
CONTINUOUS
100
AcDbLine
 10
23.5
 20
83.49999999999999
 30
0.0
 11
23.5
 21
62.82055052822967
 31
0.0
  0
LINE
  5
70C2
330
1E
100
AcDbEntity
  8
10
  6
CONTINUOUS
100
AcDbLine
 10
-23.0
 20
82.5
 30
0.0
 11
-23.0
 21
65.0
 31
0.0
  0
LINE
  5
70C3
330
1E
100
AcDbEntity
  8
10
  6
CONTINUOUS
100
AcDbLine
 10
12.0
 20
82.5
 30
0.0
 11
12.0
 21
65.0
 31
0.0
  0
LINE
  5
70C4
330
1E
100
AcDbEntity
  8
10
  6
CONTINUOUS
100
AcDbLine
 10
-12.0
 20
82.5
 30
0.0
 11
-12.0
 21
65.0
 31
0.0
  0
LINE
  5
70C5
330
1E
100
AcDbEntity
  8
10
  6
CONTINUOUS
100
AcDbLine
 10
23.0
 20
82.5
 30
0.0
 11
23.0
 21
65.0
 31
0.0
  0
LINE
  5
70C6
330
1E
100
AcDbEntity
  8
24
  6
CONTINOUS
100
AcDbLine
 10
-6.0
 20
72.0
 30
0.0
 11
6.0
 21
72.0
 31
0.0
  0
LINE
  5
70C7
330
1E
100
AcDbEntity
  8
10
  6
CONTINUOUS
100
AcDbLine
 10
7.0
 20
60.0
 30
0.0
 11
-7.0
 21
60.0
 31
0.0
  0
CIRCLE
  5
70C8
330
1E
100
AcDbEntity
  8
24
  6
CONTINOUS
100
AcDbCircle
 10
0.0
 20
72.0
 30
0.0
 40
4.25
  0
ARC
  5
70C9
330
1E
100
AcDbEntity
  8
10
  6
CONTINUOUS
100
AcDbCircle
 10
-28.0
 20
65.0
 30
0.0
 40
5.0
100
AcDbArc
 50
270.0
 51
0.0
  0
LINE
  5
70CA
330
1E
100
AcDbEntity
  8
24
  6
CONTINOUS
100
AcDbLine
 10
-35.0
 20
78.0
 30
0.0
 11
-35.0
 21
66.0
 31
0.0
  0
LINE
  5
70CB
330
1E
100
AcDbEntity
  8
10
  6
CONTINUOUS
100
AcDbLine
 10
-28.0
 20
60.0
 30
0.0
 11
-42.0
 21
60.0
 31
0.0
  0
LINE
  5
70CC
330
1E
100
AcDbEntity
  8
24
  6
CONTINOUS
100
AcDbLine
 10
-41.0
 20
72.0
 30
0.0
 11
-29.0
 21
72.0
 31
0.0
  0
CIRCLE
  5
70CD
330
1E
100
AcDbEntity
  8
24
  6
CONTINOUS
100
AcDbCircle
 10
35.0
 20
72.0
 30
0.0
 40
4.25
210
0.0
220
0.0
230
-1.0
  0
LINE
  5
70CE
330
1E
100
AcDbEntity
  8
12
  6
DASHED
100
AcDbLine
 10
-17.5
 20
68.5
 30
0.0
 11
-17.5
 21
57.5
 31
0.0
  0
CIRCLE
  5
70CF
330
1E
100
AcDbEntity
  8
12
  6
DASHED
100
AcDbCircle
 10
-17.5
 20
63.0
 30
0.0
 40
4.0
  0
LINE
  5
70D0
330
1E
100
AcDbEntity
  8
10
  6
CONTINUOUS
100
AcDbLine
 10
-23.0
 20
63.0
 30
0.0
 11
-12.0
 21
63.0
 31
0.0
  0
ARC
  5
70D1
330
1E
100
AcDbEntity
  8
10
  6
CONTINUOUS
100
AcDbCircle
 10
-7.0
 20
65.0
 30
0.0
 40
5.0
100
AcDbArc
 50
180.0
 51
270.0
  0
LINE
  5
70D2
330
1E
100
AcDbEntity
  8
24
  6
CONTINOUS
100
AcDbLine
 10
0.0
 20
78.0
 30
0.0
 11
0.0
 21
66.0
 31
0.0
  0
ARC
  5
70D3
330
1E
100
AcDbEntity
  8
10
  6
CONTINUOUS
100
AcDbCircle
 10
7.0
 20
65.0
 30
0.0
 40
5.0
100
AcDbArc
 50
270.0
 51
0.0
  0
LINE
  5
70D4
330
1E
100
AcDbEntity
  8
24
  6
CONTINOUS
100
AcDbLine
 10
35.0
 20
78.0
 30
0.0
 11
35.0
 21
66.0
 31
0.0
  0
ARC
  5
70D5
330
1E
100
AcDbEntity
  8
10
  6
CONTINUOUS
100
AcDbCircle
 10
28.0
 20
65.0
 30
0.0
 40
5.0
100
AcDbArc
 50
180.0
 51
270.0
  0
CIRCLE
  5
70D6
330
1E
100
AcDbEntity
  8
24
  6
CONTINOUS
100
AcDbCircle
 10
35.0
 20
72.0
 30
0.0
 40
4.25
  0
LINE
  5
70D7
330
1E
100
AcDbEntity
  8
24
  6
CONTINOUS
100
AcDbLine
 10
-7.5
 20
101.5
 30
0.0
 11
7.5
 21
101.5
 31
0.0
  0
LINE
  5
70D8
330
1E
100
AcDbEntity
  8
10
  6
CONTINUOUS
100
AcDbLine
 10
-11.5
 20
113.0
 30
0.0
 11
11.5
 21
113.0
 31
0.0
  0
CIRCLE
  5
70D9
330
1E
100
AcDbEntity
  8
24
  6
CONTINOUS
100
AcDbCircle
 10
0.0
 20
101.5
 30
0.0
 40
5.5
  0
LINE
  5
70DA
330
1E
100
AcDbEntity
  8
10
  6
CONTINUOUS
100
AcDbLine
 10
-37.0
 20
113.0
 30
0.0
 11
-23.5
 21
83.49999999999999
 31
0.0
  0
LINE
  5
70DB
330
1E
100
AcDbEntity
  8
10
  6
CONTINUOUS
100
AcDbLine
 10
-11.5
 20
82.5
 30
0.0
 11
-23.04237288135595
 21
82.5
 31
0.0
  0
LINE
  5
70DC
330
1E
100
AcDbEntity
  8
10
  6
CONTINUOUS
100
AcDbLine
 10
37.0
 20
113.0
 30
0.0
 11
23.5
 21
83.49999999999999
 31
0.0
  0
LINE
  5
70DD
330
1E
100
AcDbEntity
  8
10
  6
CONTINUOUS
100
AcDbLine
 10
23.5
 20
82.5
 30
0.0
 11
11.5
 21
82.5
 31
0.0
  0
LINE
  5
70DE
330
1E
100
AcDbEntity
  8
10
  6
CONTINUOUS
100
AcDbLine
 10
46.5
 20
89.99999999999994
 30
0.0
 11
46.5
 21
62.82055052822967
 31
0.0
  0
LINE
  5
70DF
330
1E
100
AcDbEntity
  8
10
  6
CONTINUOUS
100
AcDbLine
 10
47.0
 20
82.5
 30
0.0
 11
47.0
 21
65.0
 31
0.0
  0
ARC
  5
70E0
330
1E
100
AcDbEntity
  8
10
  6
CONTINUOUS
100
AcDbCircle
 10
42.0
 20
65.0
 30
0.0
 40
5.0
100
AcDbArc
 50
270.0
 51
0.0
  0
LINE
  5
70E1
330
1E
100
AcDbEntity
  8
24
  6
CONTINOUS
100
AcDbLine
 10
48.5
 20
109.0
 30
0.0
 11
48.5
 21
94.0
 31
0.0
  0
LINE
  5
70E2
330
1E
100
AcDbEntity
  8
10
  6
CONTINUOUS
100
AcDbLine
 10
60.0
 20
113.0
 30
0.0
 11
60.0
 21
90.0
 31
0.0
  0
CIRCLE
  5
70E3
330
1E
100
AcDbEntity
  8
24
  6
CONTINOUS
100
AcDbCircle
 10
48.5
 20
101.5
 30
0.0
 40
5.5
  0
LINE
  5
70E4
330
1E
100
AcDbEntity
  8
10
  6
CONTINUOUS
100
AcDbLine
 10
60.0
 20
90.0
 30
0.0
 11
46.5
 21
90.0
 31
0.0
  0
LINE
  5
70E5
330
1E
100
AcDbEntity
  8
10
  6
CONTINUOUS
100
AcDbLine
 10
52.5
 20
82.5
 30
0.0
 11
46.5
 21
82.5
 31
0.0
  0
LINE
  5
70E6
330
1E
100
AcDbEntity
  8
24
  6
CONTINOUS
100
AcDbLine
 10
41.0
 20
101.5
 30
0.0
 11
55.99999999999997
 21
101.5
 31
0.0
  0
LINE
  5
7121
330
1E
100
AcDbEntity
  8
18
  6
DIVIDE
100
AcDbLine
 10
52.1199054648288
 20
-332.5
 30
0.0
 11
52.1199054648288
 21
-167.5
 31
0.0
  0
DIMENSION
  5
7134
330
1E
100
AcDbEntity
  8
30
  6
CONTINUOUS
100
AcDbDimension
  2
*D22
 10
17.11990546482881
 20
-343.6940094967603
 30
0.0
 11
-0.380094535171194
 21
-340.6940094967603
 31
0.0
 70
    32
  3
STANDARD
100
AcDbAlignedDimension
 13
-17.88009453517117
 23
-192.5
 33
0.0
 14
17.11990546482881
 24
-318.5
 34
0.0
100
AcDbRotatedDimension
1001
ACAD
1000
DSTYLE
1002
{
1070
    79
1070
     3
1002
}
  0
LINE
  5
7142
330
1E
100
AcDbEntity
  8
18
  6
DIVIDE
100
AcDbLine
 10
262.1199054648286
 20
-332.5
 30
0.0
 11
262.1199054648286
 21
-167.5
 31
0.0
  0
DIMENSION
  5
721B
330
1E
100
AcDbEntity
  8
30
  6
CONTINUOUS
100
AcDbDimension
  2
*D23
 10
11.0
 20
-34.43596143916396
 30
0.0
 11
0.0000000000000002
 21
-31.43596143916396
 31
0.0
 70
    32
  3
STANDARD
100
AcDbAlignedDimension
 13
-11.0
 23
-22.5
 33
0.0
 14
11.0
 24
-22.5
 34
0.0
100
AcDbRotatedDimension
1001
ACAD
1000
DSTYLE
1002
{
1070
    79
1070
     3
1002
}
  0
DIMENSION
  5
7235
330
1E
100
AcDbEntity
  8
30
  6
CONTINUOUS
100
AcDbDimension
  2
*D25
 10
-0.0000000000000011
 20
-124.5376297822262
 30
0.0
 11
-24.25000000000001
 21
-121.5376297822261
 31
0.0
 70
    32
  3
STANDARD
100
AcDbAlignedDimension
 13
-48.50000000000003
 23
-109.0
 33
0.0
 14
0.0
 24
-107.0
 34
0.0
100
AcDbRotatedDimension
1001
ACAD
1000
DSTYLE
1002
{
1070
    79
1070
     3
1002
}
  0
DIMENSION
  5
7242
330
1E
100
AcDbEntity
  8
30
  6
CONTINUOUS
100
AcDbDimension
  2
*D26
 10
48.5
 20
-125.0376297822263
 30
0.0
 11
24.25
 21
-122.0376297822262
 31
0.0
 70
    32
  3
STANDARD
100
AcDbAlignedDimension
 13
0.0
 23
-113.0
 33
0.0
 14
48.5
 24
-107.0
 34
0.0
100
AcDbRotatedDimension
1001
ACAD
1000
DSTYLE
1002
{
1070
    79
1070
     3
1002
}
  0
DIMENSION
  5
724F
330
1E
100
AcDbEntity
  8
30
  6
CONTINUOUS
100
AcDbDimension
  2
*D27
 10
52.5
 20
-132.0216144129897
 30
0.0
 11
0.2634083267403184
 21
-132.0216144129897
 31
0.0
 70
   160
  3
STANDARD
100
AcDbAlignedDimension
 13
-52.50000000000003
 23
-82.5
 33
0.0
 14
52.5
 24
-82.5
 34
0.0
100
AcDbRotatedDimension
1001
ACAD
1000
DSTYLE
1002
{
1070
    79
1070
     3
1002
}
  0
DIMENSION
  5
728F
330
1E
100
AcDbEntity
  8
30
  6
CONTINUOUS
100
AcDbDimension
  2
*D28
 10
60.0
 20
-141.6548064381347
 30
0.0
 11
-0.0000000000000211
 21
-138.6548064381347
 31
0.0
 70
    32
  3
STANDARD
100
AcDbAlignedDimension
 13
-60.00000000000003
 23
-113.0
 33
0.0
 14
60.0
 24
-113.0
 34
0.0
100
AcDbRotatedDimension
1001
ACAD
1000
DSTYLE
1002
{
1070
    79
1070
     3
1002
}
  0
MTEXT
  5
7312
330
1E
100
AcDbEntity
  8
19
100
AcDbMText
 10
141.5140247853482
 20
308.339618957736
 30
0.0
 40
5.0
 41
121.3710163908808
 71
     1
 72
     5
  1
H125-NJ 3P FC + BAR\PL125-NJ 3P FC + BAR\PH160-NJ 3P FC + BAR\PL160-NJ 3P FC + BAR\PH250-NJ 3P FC + BAR\PL250-NJ 3P FC + BAR\PS250-PE 3P FC + BAR\PH250-NE 3P FC + BAR
  7
STANDARD1
1001
ACAD
1000
MTEXTBEGIN
1070
    73
1070
     1
1070
    44
1040
1.0
1070
    74
1070
     0
1000
MTEXTEND
  0
VIEWPORT
  5
9AC
330
1A
100
AcDbEntity
 67
     1
  8
0
  6
CONTINUOUS
100
AcDbViewport
 10
171.999535
 20
144.1384739999999
 30
0.0
 40
488.867686
 41
292.351491
 68
    -1
 69
     1
1001
ACAD
1000
MVIEW
1002
{
1070
    16
1010
0.0
1020
0.0
1030
0.0
1010
0.0
1020
0.0
1030
1.0
1040
0.0
1040
292.351491
1040
171.999535
1040
144.1384739999999
1040
50.0
1040
0.0
1040
0.0
1070
     0
1070
   100
1070
     1
1070
     1
1070
     0
1070
     0
1070
     0
1070
     0
1040
0.0
1040
0.0
1040
0.0
1040
10.0
1040
10.0
1040
10.0
1040
10.0
1070
     0
1002
{
1002
}
1002
}
  0
ENDSEC
  0
SECTION
  2
OBJECTS
  0
DICTIONARY
  5
C
330
0
100
AcDbDictionary
  3
ACAD_GROUP
350
D
  3
ACAD_LAYOUT
350
19
  3
ACAD_MLINESTYLE
350
16
  3
ACAD_PLOTSETTINGS
350
18
  3
ACAD_PLOTSTYLENAME
350
E
  3
ACADDIM
350
5C76
  3
ACDBHEADERROUNDTRIPXREC
350
73B5
  3
ACDBVARIABLEDICTIONARY
350
5697
  0
DICTIONARY
  5
178
330
1E
100
AcDbDictionary
280
     1
  3
ACAD_LAYOUTSELFREF
360
73D7
  0
DICTIONARY
  5
17A
330
1A
100
AcDbDictionary
280
     1
  3
ACAD_LAYOUTSELFREF
360
73D6
  0
DICTIONARY
  5
D
102
{ACAD_REACTORS
330
C
102
}
330
C
100
AcDbDictionary
  0
DICTIONARY
  5
19
102
{ACAD_REACTORS
330
C
102
}
330
C
100
AcDbDictionary
  0
DICTIONARY
  5
16
102
{ACAD_REACTORS
330
C
102
}
330
C
100
AcDbDictionary
  3
STANDARD
350
17
  0
DICTIONARY
  5
18
102
{ACAD_REACTORS
330
C
102
}
330
C
100
AcDbDictionary
  0
ACDBDICTIONARYWDFLT
  5
E
102
{ACAD_REACTORS
330
C
102
}
330
C
100
AcDbDictionary
281
     1
  3
Normal
350
F
100
AcDbDictionaryWithDefault
340
F
  0
XRECORD
  5
5C76
102
{ACAD_REACTORS
330
C
102
}
330
C
100
AcDbXrecord
 90
   990106
  3

 60
     0
 61
     0
 62
     1
 63
     3
 64
     0
 65
     0
 66
     0
 67
     3
 68
     1
 69
     0
 70
     0
 71
     0
 72
     0
 40
0.0
170
     0
340
6068
  0
DICTIONARY
  5
73B5
102
{ACAD_REACTORS
330
C
102
}
330
C
100
AcDbDictionary
  3
CEPSNTYPE
350
73BF
  3
DIMSTYLEDATA
350
73C3
  3
FINGERPRINTGUID
350
73C0
  3
HYPERLINKBASE
350
73B8
  3
INSUNITS
350
73BE
  3
LAYOUTDICT
350
73BA
  3
LWETCUNION
350
73BD
  3
PLOTSETDICT
350
73BB
  3
PLOTSTYLNAMDICT
350
73BC
  3
PSVPSCALE
350
73C2
  3
PUCSBASE
350
73C6
  3
PUCSORGBACK
350
73CC
  3
PUCSORGBOTTOM
350
73C8
  3
PUCSORGFRONT
350
73CB
  3
PUCSORGLEFT
350
73C9
  3
PUCSORGRIGHT
350
73CA
  3
PUCSORGTOP
350
73C7
  3
PUCSORTHOREF
350
73C4
  3
PUCSORTHOVIEW
350
73C5
  3
STYLESHEET
350
73B9
  3
TSTACKALIGN
350
73B6
  3
TSTACKSIZE
350
73B7
  3
UCSBASE
350
73CF
  3
UCSORGBACK
350
73D5
  3
UCSORGBOTTOM
350
73D1
  3
UCSORGFRONT
350
73D4
  3
UCSORGLEFT
350
73D2
  3
UCSORGRIGHT
350
73D3
  3
UCSORGTOP
350
73D0
  3
UCSORTHOREF
350
73CD
  3
UCSORTHOVIEW
350
73CE
  3
VERSIONGUID
350
73C1
  0
DICTIONARY
  5
5697
102
{ACAD_REACTORS
330
C
102
}
330
C
100
AcDbDictionary
  3
DIMASSOC
350
5698
  0
XRECORD
  5
73D7
102
{ACAD_REACTORS
330
178
102
}
330
178
100
AcDbXrecord
340
1E
  0
XRECORD
  5
73D6
102
{ACAD_REACTORS
330
17A
102
}
330
17A
100
AcDbXrecord
340
1A
  0
MLINESTYLE
  5
17
102
{ACAD_REACTORS
330
16
102
}
330
16
100
AcDbMlineStyle
  2
STANDARD
 70
     0
  3

 62
   256
 51
90.0
 52
90.0
 71
     2
 49
0.5
 62
   256
  6
BYLAYER
 49
-0.5
 62
   256
  6
BYLAYER
  0
ACDBPLACEHOLDER
  5
F
102
{ACAD_REACTORS
330
E
102
}
330
E
100
AcDbPlaceHolder
280
     0
  0
XRECORD
  5
73BF
102
{ACAD_REACTORS
330
73B5
102
}
330
73B5
100
AcDbXrecord
 90
        0
  0
XRECORD
  5
73C3
102
{ACAD_REACTORS
330
73B5
102
}
330
73B5
100
AcDbXrecord
1000
DSTYLE
1002
{
1070
    79
 70
     3
1070
   341
340
3B2
1070
   342
340
3B2
1002
}
  0
XRECORD
  5
73C0
102
{ACAD_REACTORS
330
73B5
102
}
330
73B5
100
AcDbXrecord
  1

  0
XRECORD
  5
73B8
102
{ACAD_REACTORS
330
73B5
102
}
330
73B5
100
AcDbXrecord
  1

  0
XRECORD
  5
73BE
102
{ACAD_REACTORS
330
73B5
102
}
330
73B5
100
AcDbXrecord
 90
        0
  0
XRECORD
  5
73BA
102
{ACAD_REACTORS
330
73B5
102
}
330
73B5
100
AcDbXrecord
340
19
  0
XRECORD
  5
73BD
102
{ACAD_REACTORS
330
73B5
102
}
330
73B5
100
AcDbXrecord
 90
    10781
  0
XRECORD
  5
73BB
102
{ACAD_REACTORS
330
73B5
102
}
330
73B5
100
AcDbXrecord
340
18
  0
XRECORD
  5
73BC
102
{ACAD_REACTORS
330
73B5
102
}
330
73B5
100
AcDbXrecord
340
E
  0
XRECORD
  5
73C2
102
{ACAD_REACTORS
330
73B5
102
}
330
73B5
100
AcDbXrecord
 40
0.0
  0
XRECORD
  5
73C6
102
{ACAD_REACTORS
330
73B5
102
}
330
73B5
100
AcDbXrecord
340
0
  0
XRECORD
  5
73CC
102
{ACAD_REACTORS
330
73B5
102
}
330
73B5
100
AcDbXrecord
 10
0.0
 20
0.0
 30
0.0
  0
XRECORD
  5
73C8
102
{ACAD_REACTORS
330
73B5
102
}
330
73B5
100
AcDbXrecord
 10
0.0
 20
0.0
 30
0.0
  0
XRECORD
  5
73CB
102
{ACAD_REACTORS
330
73B5
102
}
330
73B5
100
AcDbXrecord
 10
0.0
 20
0.0
 30
0.0
  0
XRECORD
  5
73C9
102
{ACAD_REACTORS
330
73B5
102
}
330
73B5
100
AcDbXrecord
 10
0.0
 20
0.0
 30
0.0
  0
XRECORD
  5
73CA
102
{ACAD_REACTORS
330
73B5
102
}
330
73B5
100
AcDbXrecord
 10
0.0
 20
0.0
 30
0.0
  0
XRECORD
  5
73C7
102
{ACAD_REACTORS
330
73B5
102
}
330
73B5
100
AcDbXrecord
 10
0.0
 20
0.0
 30
0.0
  0
XRECORD
  5
73C4
102
{ACAD_REACTORS
330
73B5
102
}
330
73B5
100
AcDbXrecord
340
0
  0
XRECORD
  5
73C5
102
{ACAD_REACTORS
330
73B5
102
}
330
73B5
100
AcDbXrecord
 70
     0
  0
XRECORD
  5
73B9
102
{ACAD_REACTORS
330
73B5
102
}
330
73B5
100
AcDbXrecord
  1
KIKI.ctb
  0
XRECORD
  5
73B6
102
{ACAD_REACTORS
330
73B5
102
}
330
73B5
100
AcDbXrecord
 90
        1
  0
XRECORD
  5
73B7
102
{ACAD_REACTORS
330
73B5
102
}
330
73B5
100
AcDbXrecord
 90
       70
  0
XRECORD
  5
73CF
102
{ACAD_REACTORS
330
73B5
102
}
330
73B5
100
AcDbXrecord
340
0
  0
XRECORD
  5
73D5
102
{ACAD_REACTORS
330
73B5
102
}
330
73B5
100
AcDbXrecord
 10
0.0
 20
0.0
 30
0.0
  0
XRECORD
  5
73D1
102
{ACAD_REACTORS
330
73B5
102
}
330
73B5
100
AcDbXrecord
 10
0.0
 20
0.0
 30
0.0
  0
XRECORD
  5
73D4
102
{ACAD_REACTORS
330
73B5
102
}
330
73B5
100
AcDbXrecord
 10
0.0
 20
0.0
 30
0.0
  0
XRECORD
  5
73D2
102
{ACAD_REACTORS
330
73B5
102
}
330
73B5
100
AcDbXrecord
 10
0.0
 20
0.0
 30
0.0
  0
XRECORD
  5
73D3
102
{ACAD_REACTORS
330
73B5
102
}
330
73B5
100
AcDbXrecord
 10
0.0
 20
0.0
 30
0.0
  0
XRECORD
  5
73D0
102
{ACAD_REACTORS
330
73B5
102
}
330
73B5
100
AcDbXrecord
 10
0.0
 20
0.0
 30
0.0
  0
XRECORD
  5
73CD
102
{ACAD_REACTORS
330
73B5
102
}
330
73B5
100
AcDbXrecord
340
0
  0
XRECORD
  5
73CE
102
{ACAD_REACTORS
330
73B5
102
}
330
73B5
100
AcDbXrecord
 70
     0
  0
XRECORD
  5
73C1
102
{ACAD_REACTORS
330
73B5
102
}
330
73B5
100
AcDbXrecord
  1
{734EE268-C285-4487-B2F4-A838C569899E}
  0
DICTIONARYVAR
  5
5698
102
{ACAD_REACTORS
330
5697
102
}
330
5697
100
DictionaryVariables
280
     0
  1
1
  0
ENDSEC
  0
EOF
